<?xml version="1.0" standalone="no"?>
<!DOCTYPE svg PUBLIC "-//W3C//DTD SVG 1.1//EN" "http://www.w3.org/Graphics/SVG/1.1/DTD/svg11.dtd" >
<svg xmlns="http://www.w3.org/2000/svg">
<metadata>Generated by IcoMoon</metadata>
<defs>
<font id="CalciteWebCoreIcons" horiz-adv-x="1024">
<font-face units-per-em="1024" ascent="960" descent="-64" />
<missing-glyph horiz-adv-x="1024" />
<glyph unicode="&#x20;" horiz-adv-x="512" d="" />
<glyph unicode="&#xe600;" glyph-name="close" d="M852.075 832.664l45.255-45.256-724.077-724.061-45.255 45.256 724.077 724.061zM128.008 787.414l45.257 45.256 724.061-724.077-45.257-45.256-724.061 724.077z" />
<glyph unicode="&#xe601;" glyph-name="drag-horizontal" d="M64 768h896v-64h-896v64zM64 512h896v-64h-896v64zM64 256h896v-64h-896v64z" />
<glyph unicode="&#xe602;" glyph-name="drag-vertical" d="M768 896v-896h-64v896h64zM512 896v-896h-64v896h64zM256 896v-896h-64v896h64z" />
<glyph unicode="&#xe603;" glyph-name="handle-horizontal" d="M980.297 448c0-46.556-37.741-84.297-84.297-84.297s-84.297 37.741-84.297 84.297c0 46.556 37.741 84.297 84.297 84.297s84.297-37.741 84.297-84.297zM212.297 448c0-46.556-37.741-84.297-84.297-84.297s-84.297 37.741-84.297 84.297c0 46.556 37.741 84.297 84.297 84.297s84.297-37.741 84.297-84.297zM596.297 448c0-46.556-37.741-84.297-84.297-84.297s-84.297 37.741-84.297 84.297c0 46.556 37.741 84.297 84.297 84.297s84.297-37.741 84.297-84.297z" />
<glyph unicode="&#xe604;" glyph-name="handle-vertical" d="M596.297 63.999c0-46.556-37.741-84.297-84.297-84.297s-84.297 37.741-84.297 84.297c0 46.556 37.741 84.297 84.297 84.297s84.297-37.741 84.297-84.297zM596.297 832c0-46.556-37.741-84.297-84.297-84.297s-84.297 37.741-84.297 84.297c0 46.556 37.741 84.297 84.297 84.297s84.297-37.741 84.297-84.297zM596.297 447.999c0-46.556-37.741-84.297-84.297-84.297s-84.297 37.741-84.297 84.297c0 46.556 37.741 84.297 84.297 84.297s84.297-37.741 84.297-84.297z" />
<glyph unicode="&#xe605;" glyph-name="check-mark" d="M879.801 746.328l-527.801-527.828-184.434 184.441-45.254-45.254 229.688-229.688 573.051 573.051z" />
<glyph unicode="&#xe606;" glyph-name="left-triangle-arrow" d="M256 480l448-416c0 166.844 0 665.508 0 832l-448-416zM640 210.75l-289.937 269.25 289.937 269.25v-538.5z" />
<glyph unicode="&#xe607;" glyph-name="right-triangle-arrow" d="M320 896c0-166.492 0-665.156 0-832l448 416-448 416zM384 749.25l289.937-269.25-289.937-269.25v538.5z" />
<glyph unicode="&#xe608;" glyph-name="down-arrow" d="M64 640l416-448 416 448c-166.844 0-665.508 0-832 0zM210.75 576h538.5l-269.25-289.937-269.25 289.937z" />
<glyph unicode="&#xe609;" glyph-name="up-arrow" d="M480 704l-416-448c166.844 0 665.508 0 832 0l-416 448zM480 609.937l269.25-289.937h-538.5l269.25 289.937z" />
<glyph unicode="&#xe60a;" glyph-name="overview-arrow-bottom-left" d="M858.5 576l-218.5 218.5-256-256-256 256c0-355.809 0-468.828 0-730.5 164.949 0 577.266 0 730.5 0l-256 256 256 256zM704 128h-512v512l192-192 256 256 128-128-256-256 192-192z" />
<glyph unicode="&#xe60b;" glyph-name="overview-arrow-bottom-right" d="M640 538.5l-256 256-218.5-218.5 256-256-256-256c153.234 0 565.551 0 730.5 0 0 261.672 0 374.691 0 730.5l-256-256zM832 128h-512l192 192-256 256 128 128 256-256 192 192v-512z" />
<glyph unicode="&#xe60c;" glyph-name="overview-arrow-top-left" d="M858.5 832c-153.234 0-565.551 0-730.5 0 0-261.672 0-374.691 0-730.5l256 256 256-256 218.5 218.5-256 256 256 256zM768 320l-128-128-256 256-192-192v512h512l-192-192 256-256z" />
<glyph unicode="&#xe60d;" glyph-name="overview-arrow-top-right" d="M165.5 832l256-256-256-256 218.5-218.5 256 256 256-256c0 355.809 0 468.828 0 730.5-164.949 0-577.266 0-730.5 0zM832 256l-192 192-256-256-128 128 256 256-192 192h512v-512z" />
<glyph unicode="&#xe60e;" glyph-name="maximize" d="M64 832v-768h896v768h-896zM896 128h-768v512h768v-512zM896 704h-768v64h768v-64z" />
<glyph unicode="&#xe60f;" glyph-name="minimize" d="M320 960v-256h-320v-704h704v256h320v704h-704zM640 320v-256h-576v448h576v-192zM640 576h-576v64h576v-64zM960 320h-256v384h-320v64h576v-448zM960 832h-576v64h576v-64z" />
<glyph unicode="&#xe610;" glyph-name="checkbox-unchecked" d="M64 896v-896h896v896h-896zM896 64h-768v768h768v-768z" />
<glyph unicode="&#xe611;" glyph-name="checkbox-checked" d="M64 896v-896h896v896h-896zM896 64h-768v768h768v-768zM800.758 655.715l-384.758-384.777-184.434 184.441-45.254-45.254 229.688-229.688 430.016 430.016z" />
<glyph unicode="&#xe612;" glyph-name="radio-unchecked" d="M512 896.047c-247.039 0-448-200.98-448-448.047 0-247.004 200.961-447.953 448-447.953s448 200.949 448 447.953c0 247.066-200.961 448.047-448 448.047zM512 64.063c-211.75 0-384 172.25-384 383.937 0 211.75 172.25 384.063 384 384.063s384-172.312 384-384.063c0-211.688-172.25-383.937-384-383.937z" />
<glyph unicode="&#xe613;" glyph-name="radio-checked" d="M691.187 448c0-98.81-80.378-179.188-179.187-179.188-98.81 0-179.188 80.378-179.188 179.188s80.378 179.187 179.188 179.187c98.809 0 179.187-80.378 179.187-179.187zM512 896.047c-247.039 0-448-200.98-448-448.047 0-247.004 200.961-447.953 448-447.953s448 200.949 448 447.953c0 247.066-200.961 448.047-448 448.047zM512 64.063c-211.75 0-384 172.25-384 383.937 0 211.75 172.25 384.063 384 384.063s384-172.312 384-384.063c0-211.688-172.25-383.937-384-383.937z" />
<glyph unicode="&#xe614;" glyph-name="up-arrow-circled" d="M768 493.543l-288 287.996-288-288v-90.5l256 256.012v-467.051h64v467.051l256-256.012zM480.051 960c-264.715 0-480.051-215.312-480.051-480s215.336-480 480.051-480c264.645 0 479.949 215.312 479.949 480s-215.305 480-479.949 480zM480.063 64c-229.438 0-416.063 186.625-416.063 416s186.625 416 416.063 416c229.375 0 415.937-186.625 415.937-416s-186.563-416-415.937-416z" />
<glyph unicode="&#xe615;" glyph-name="down-arrow-circled" d="M480.051 960c-264.715 0-480.051-215.312-480.051-480s215.336-480 480.051-480c264.645 0 479.949 215.312 479.949 480s-215.305 480-479.949 480zM480.063 64c-229.438 0-416.063 186.625-416.063 416s186.625 416 416.063 416c229.375 0 415.937-186.625 415.937-416s-186.563-416-415.937-416zM512 768h-64v-469.492l-184.215 184.258-45.277-45.277 261.492-261.488 261.488 261.488-45.25 45.25c-64.754-64.754-119.586-119.586-184.238-184.238v469.5z" />
<glyph unicode="&#xe616;" glyph-name="left-arrow-circled" d="M480.051 960c-264.715 0-480.051-215.312-480.051-480s215.336-480 480.051-480c264.645 0 479.949 215.312 479.949 480s-215.305 480-479.949 480zM480.063 64c-229.438 0-416.063 186.625-416.063 416s186.625 416 416.063 416c229.375 0 415.937-186.625 415.937-416s-186.563-416-415.937-416zM768 448v64h-469.492l184.258 184.215-45.277 45.277-261.488-261.492 261.488-261.488 45.25 45.25c-64.754 64.754-119.586 119.586-184.238 184.238h469.5z" />
<glyph unicode="&#xe617;" glyph-name="right-arrow-circled" d="M480.051 960c-264.715 0-480.051-215.312-480.051-480s215.336-480 480.051-480c264.645 0 479.949 215.312 479.949 480s-215.305 480-479.949 480zM480.063 64c-229.438 0-416.063 186.625-416.063 416s186.625 416 416.063 416c229.375 0 415.937-186.625 415.937-416s-186.563-416-415.937-416zM522.512 741.492l-45.277-45.277 184.258-184.215h-469.492v-64h469.5l-184.238-184.238 45.25-45.25 261.488 261.488z" />
<glyph unicode="&#xe618;" glyph-name="zoom-out-fixed" d="M576 896v-64h274.75l-274.75-274.762c0-16.437 0-6.005 0-45.238 38.043 0 28.296 0 45.273 0l274.727 274.742v-274.742h64v384h-384zM64 512h64v275.004l275.332-275.004c25.773 0 19.645 0 44.668 0 0 17.247 0 28.581 0 45.898l-274.426 274.102h274.426v64h-384v-384zM896 110.437l-273.887 273.563c-14.886 0-12.756 0-46.113 0 0-25.275 0-19.078 0-44.457l275.871-275.543h-275.871v-64h384v384h-64v-273.563zM402.773 384l-274.773-274.785v274.785h-64v-384h384v64h-274.703l274.703 274.719c0 17.023 0 6.98 0 45.281-48.289 0-31.647 0-45.227 0z" />
<glyph unicode="&#xe619;" glyph-name="zoom-in-fixed" d="M960 512v64l-274.751-0.001 274.753 274.763c0 16.437 0 6.005 0 45.238-38.044 0-28.296 0-45.274 0l-274.729-274.744 0.001 274.743h-64l-0.002-384.001 384.002 0.001zM448.002 896.001h-64l-0.001-275.005-275.332 275.004c-25.773 0-19.645 0-44.668 0 0-17.247 0-28.581 0-45.899l274.426-274.102-274.427-0.001v-64l384.002 0.001 0.002 384.001zM640 273.563l273.887-273.563c14.886 0 12.756 0 46.113 0 0 25.275 0 19.078 0 44.457l-275.871 275.543h275.871v64h-384v-384h64v273.562zM109.225-0.001l274.776 274.787-0.001-274.786h64l0.002 384.001-384.002-0.001v-64l274.705 0.001-274.706-274.72c0-17.023 0-6.98 0-45.281 48.289 0 31.647 0 45.227 0z" />
<glyph unicode="&#xe61a;" glyph-name="refresh" d="M953.717 320.001c-72.091-151.082-225.915-256.001-404.15-256.001s-332.058 104.918-404.147 256.001h-70.285c75.987-187.559 259.616-320.001 474.432-320.001s398.446 132.442 474.435 320.001h-70.285zM128-64l0.001 320.001h320v64c-168.545 0-224.297 0-384 0-0.001-164.878-0.001-214.887-0.002-384.001h64zM70.285 576c72.090 151.082 225.914 256 404.148 256s332.059-104.918 404.148-256h70.285c-75.988 187.559-259.617 320-474.434 320s-398.445-132.441-474.434-320h70.285zM896 960v-320h-320v-64c168.545 0 224.297 0 384 0 0 164.877 0 214.886 0 384h-64z" />
<glyph unicode="&#xe61b;" glyph-name="edit" d="M787.41 936.43l-678.82-678.82-90.512-271.531 271.531 90.512 678.82 678.82-181.020 181.020zM255.063 132.5l-135.812-45.25 45.25 135.812 622.937 622.875 90.5-90.5-622.875-622.938z" />
<glyph unicode="&#xe61c;" glyph-name="authorize" d="M787.41 936.43l-85.117-85.117-134.059 44.688-226.273-226.273v-90.508l248.902 248.902 66.18-22.059-548.453-548.453-90.512-271.531 271.531 90.512 678.82 678.82-181.020 181.020zM255.063 132.531l-135.812-45.281 45.25 135.812 622.937 622.875 90.5-90.531-622.875-622.875z" />
<glyph unicode="&#xe61d;" glyph-name="map-pin" d="M480 960c-153.129 0-288-57.746-288-208v-544l288-272 288 272v543.812c0 0.125 0 0.125 0 0.188 0 150.254-134.812 208-288 208zM704 235.563l-224-211.563-224 211.563v516.437c0 125.312 140.344 144 224 144s224-18.688 224-144v-516.437zM576 672c0-53.019-42.981-96-96-96s-96 42.981-96 96c0 53.019 42.981 96 96 96s96-42.981 96-96z" />
<glyph unicode="&#xe61e;" glyph-name="blank-map-pin" d="M480 960c-153.129 0-288-57.746-288-208v-544l288-272 288 272v543.812c0 0.125 0 0.125 0 0.188 0 150.254-134.812 208-288 208zM704 235.563l-224-211.563-224 211.563v516.437c0 125.312 140.344 144 224 144s224-18.688 224-144v-516.437z" />
<glyph unicode="&#xe61f;" glyph-name="table" d="M64 896v-832h960v832h-960zM448 128h-320v127.988h320v-127.988zM448 319.988h-320v128h320v-128zM448 511.988h-320l0.004 128.027h319.996v-128.027zM703.988 128h-191.988v127.988h191.988v-127.988zM703.988 319.988h-191.988v128h191.988v-128zM703.988 511.988h-191.988v128.027h191.988v-128.027zM960 128h-192.012v127.988h192.012v-127.988zM960 319.988h-192.012v128h192.012v-128zM960 511.988h-192.012v128.027h192.012v-128.027zM960 704h-832v128h832v-128z" />
<glyph unicode="&#xe620;" glyph-name="plus" d="M448 960h64v-960h-64v960zM0 448v64h960v-64h-960z" />
<glyph unicode="&#xe621;" glyph-name="minus" d="M0 448v64h960v-64h-960z" />
<glyph unicode="&#xe622;" glyph-name="beginning" d="M192 768h64v-704h-64v704zM320 416l448-352c0 70.902 0 628.352 0 704l-448-352zM704 195.688l-280.406 220.312 280.406 220.312v-440.625z" />
<glyph unicode="&#xe623;" glyph-name="reverse" d="M704 768h64v-704h-64v704zM192 416l448-352c0 70.902 0 628.352 0 704l-448-352zM576 195.688l-280.437 220.312 280.437 220.312v-440.625z" />
<glyph unicode="&#xe624;" glyph-name="pause" d="M320 768h64v-704h-64v704zM576 768h64v-704h-64v704z" />
<glyph unicode="&#xe625;" glyph-name="play" d="M192 896c0-352.371 0-608.863 0-960l704 480-704 480zM256 774.875l526.406-358.875-526.406-358.875v717.75z" />
<glyph unicode="&#xe626;" glyph-name="forward" d="M256 768h64v-704h-64v704zM384 768c0-150.312 0-547.137 0-704l448 352-448 352zM448 636.312l280.437-220.312-280.437-220.312v440.625z" />
<glyph unicode="&#xe627;" glyph-name="end" d="M704 768h64v-704h-64v704zM192 768c0-150.313 0-547.137 0-704l448 352-448 352zM256 636.312l280.437-220.312-280.437-220.312v440.625z" />
<glyph unicode="&#xe628;" glyph-name="erase" d="M977.188 432.629l-0.027-0.012 0.152 0.297c-2.57 7.5-6.383 13.41-9.832 19.824-9.738 18.109-21.016 32.148-31.688 42.16-10.395 9.754-19.57 16.711-22.48 19.551l-0.18-0.035-410.758 369.336c-8.688 8-19.938 12.25-31.309 12.25-4.629 0-9.258-0.629-13.629-2.188l-390.27-111.5 0.496 0.637c-8.43-2.711-16.844-6.191-24.777-10.371-7.449-3.922-14.434-8.5-20.512-13.738-12.82-11.047-21.629-24.996-22.070-42.027l-0.242 0.25c-0.012-0.328 0.055-0.711 0.047-1.039 0-0.156-0.109-0.273-0.109-0.434l0.129-0.078c-1.441-60.527 37.832-152.492 56.805-203.699 2.133-6 5.504-11.312 9.875-15.812l447.629-462.809c8.75-9.004 20.5-13.82 32.5-13.82 5.875 0 11.75 1.191 17.246 3.437l431.254 177.504c60.246 24.5 11.062 155.5-18.25 232.316zM470.625 847.688l415.266-373.285-365.266-150.027c-6.688-2.438-13.125-3.625-19.188-3.625-14.125 0-27.25 5.5-37.125 15.563l-385.773 399.359 392.086 112.016zM973.937 241.875l-426.312-174-446.312 461.5-8.437 23.062c-16.148 41.949-38.664 102.113-43.148 145.184l391.211-404.121c15.937-16.5 38.125-26 60.812-26 10.75 0 21.625 2.25 32.125 6.5l389.031 160.363c1.902-3.137 4.25-5.551 5.844-9.051l3.563-9.812c46.375-121.5 48.25-161.5 41.625-173.625z" />
<glyph unicode="&#xe629;" glyph-name="up-down-arrows" d="M320 832h-64v-659.383l-192 192v-90.512l224-224 224 224v90.512l-192-192zM736 846.52l-224-224v-90.512l192 192.004v-660.012h64v660.012l192-192.004v90.512z" />
<glyph unicode="&#xe62a;" glyph-name="left" d="M704 877.543v-90.504l-371.055-371.039 371.055-371.039v-90.504l-461.543 461.543z" />
<glyph unicode="&#xe62b;" glyph-name="right" d="M320 877.543v-90.504l371.055-371.039-371.055-371.039v-90.504l461.543 461.543z" />
<glyph unicode="&#xe62c;" glyph-name="announcement" d="M945.758 825.918c-8.898 5.937-20.172 7.035-30.047 2.93l-552.758-252.848c-103.469 0-173.57 0-219.578 0-57.203 0-77.891 0-78.828 0-0.203 0-0.344 0-0.547 0-35.344 0-64-28.648-64-63.992v-128.016c0-35.348 28.656-63.992 64-63.992v-128c0-35.348 28.656-64 64-64h192c35.344 0 64 28.652 64 64v118.371l531.711-243.215c9.875-4.109 21.148-3.008 30.047 2.926 8.898 5.938 14.242 15.926 14.242 26.621v702.598c0 10.695-5.344 20.684-14.242 26.617zM320 192h-192v128h192v-128zM896 146.437l-512 234.313v3.25h-320v128h312.875l519.125 237.5v-603.063z" />
<glyph unicode="&#xe62d;" glyph-name="notice-round" d="M448 768h64v-448h-64v448zM448 256h64v-64h-64v64zM480.051 960c-264.715 0-480.051-215.312-480.051-480s215.336-480 480.051-480c264.645 0 479.949 215.312 479.949 480s-215.305 480-479.949 480zM480.063 64c-229.438 0-416.063 186.625-416.063 416s186.625 416 416.063 416c229.375 0 415.937-186.625 415.937-416s-186.563-416-415.937-416z" />
<glyph unicode="&#xe62e;" glyph-name="notice-triangle" d="M448 640h64v-384h-64v384zM448 192h64v-64h-64v64zM954 73.324l-430.355 794.504c-8.664 16.035-25.41 25.992-43.645 25.992s-34.98-9.957-43.645-25.992l-430.355-794.504c-8.344-15.391-7.953-34.012 0.969-49.078 8.988-15.062 25.152-24.246 42.672-24.246h860.719c17.52 0 33.684 9.184 42.672 24.246 8.922 15.066 9.313 33.688 0.969 49.078zM73.75 64l406.25 750 406.25-750h-812.5z" />
<glyph unicode="&#xe62f;" glyph-name="home" d="M512 960l-128-128c0 46.32 0 81.684 0 128-74.699 0-128 0-192 0v-320l-192-192h64c0-178.031 0-267.16 0-512 110.91 0 190.285 0 320 0v384h256c0-224.445 0-159.137 0-384 15.563 0-29.449 0 320 0v513.379h64l-512 510.621zM896 0h-192v384h-384v-384h-192v485.5l128 128v282.5h64v-218.5l192.063 192.063 383.937-382.938v-486.625z" />
<glyph unicode="&#xe630;" glyph-name="locate" d="M480.051 960c-264.715 0-480.051-215.312-480.051-480s215.336-480 480.051-480c264.645 0 479.949 215.312 479.949 480s-215.305 480-479.949 480zM512 65.617v190.383h-64v-190.375c-203.867 15.66-366.746 178.555-382.379 382.375h190.379v64h-190.379c15.633 203.82 178.512 366.715 382.379 382.375v-190.375h64v190.383c203.863-15.602 366.754-178.523 382.379-382.383h-190.379v-64h190.379c-15.625-203.859-178.516-366.781-382.379-382.383z" />
<glyph unicode="&#xe631;" glyph-name="expand" d="M576 787.039v90.504l-461.543-461.543 461.543-461.543v90.504l-371.055 371.039zM896 877.543l-461.543-461.543 461.543-461.543v90.504l-371.055 371.039 371.055 371.039z" />
<glyph unicode="&#xe632;" glyph-name="collapse" d="M448 787.039v90.504l461.543-461.543-461.543-461.543v90.504l371.055 371.039zM128 877.543l461.543-461.543-461.543-461.543v90.504l371.055 371.039-371.055 371.039z" />
<glyph unicode="&#xe633;" glyph-name="layer-list" d="M191.936 768h768v-64h-768v64zM191.936 512h768v-64h-768v64zM191.936 256h768v-64h-768v64zM63.936 768h64v-64h-64v64zM63.936 512h64v-64h-64v64zM63.936 256h64v-64h-64v64z" />
<glyph unicode="&#xe634;" glyph-name="basemap" d="M0 512h448v448h-448v-448zM230.992 576c18.984 27.34 35.078 39.848 49.695 51.031 2.812 2.188 5.688 4.375 8.562 6.688 16.023-16.801 33.477-33.895 58.016-57.719h-116.273zM384 896v-279.824c-32.141 31.191-51.633 50.383-73.188 74.387l-21.125 23.469-20.063-24.312c-5.937-7.156-13.062-12.625-22.062-19.531-20.578-15.762-48.375-37.488-80.484-94.188h-57.547c28.023 41.535 92.391 101.582 136.469 135.344l18.188 13.969-10.688 20.281c-20.188 38.344-43.625 98-56.188 130.031-4.016 10.207-6.688 16.73-8.266 20.375h194.953zM64 896h74.164c-3.227-7.25-6.023-15.184-8.727-23.625-10.484-32.434-17.711-51.859-65.438-50.48v74.105zM64 767.887c55.773-1.344 83.945 20.609 99.437 45.77 9.563-23.5 20.75-49.969 31.812-73.156-37.578-30.844-99-86.641-131.25-135.113v162.5zM576 960v-448h448v448h-448zM640 896h147.531c-5.641-7.75-9.281-15.555-10.531-22.406-5.812-22.594-96.75-99.063-115.25-111.312l-21.75-7.652v141.371zM640 576v145.949l18.188-9.449c42.375-22.031 50.937-86.312 50.688-136.344l27.188-0.156h-96.063zM960 576h-72.68c3.906 61.277 20.398 71.051 35.18 79.156 30.875 16.937 40.812 37.906 33.312 77.031 1.422 0.184 2.766 0.34 4.188 0.516v-156.703zM960 787.512c-41.312-4.797-52.828-7.566-60.812-20.48l-6.5-10.563 3.75-11.844c9.125-29 7.5-36.969 7.812-36.969 0 0 0 0 0.063 0-1.063-1-5-3.188-7.937-4.781-29.641-16.25-58.672-40.008-63.531-126.875h-69.602c0.414 73.070-15.516 126.746-47.367 160.25 42.563 32.969 107.75 90.625 114.5 127.188 0.563 1.312 6.063 7.219 20.875 11.625l106.234 20.938h2.516v-108.488zM0-64h448v448h-448v-448zM384 279.578v-279.578h-259.625c0 2.836 0.102 4.801 0 8.688-0.812 34.406-2.75 115.031 41.812 153.625 24.312 20.969 61.25 27.437 109.563 19.375l23.937-4.781 6.563 23.625c5.312 12.688 47.688 51.437 68 70.094 3.656 3.344 6.656 6.102 9.75 8.953zM64 320h283.656c-3.375-3.078-6.328-5.797-10.094-9.25-32.688-29.937-57.688-53.437-71.812-72.812-56.125 5.906-101.75-5.531-135.188-34.531-63.937-55.375-61.563-153.937-60.563-196 0.078-3.324 0.070-5.199 0.078-7.406h-6.078v320zM576-64h448v448h-448v-448zM960 320v-99.812l-165.094 99.812h165.094zM640 320h49.758l270.242-163.375v-156.625h-225.656l-24.719 28.937 145.125 138.125-214.75 94.293v58.645zM640 201.937l118-51.812-118-112.316v164.129zM640 26.668l22.789-26.668h-22.789v26.668z" />
<glyph unicode="&#xe635;" glyph-name="globe" d="M480.051 960c-264.715 0-480.051-215.312-480.051-480s215.336-480 480.051-480c264.645 0 479.949 215.312 479.949 480s-215.305 480-479.949 480zM278.273 842.852c16.809 1.582 31.52 0.57 32.227-4.945 1.434-11.937 1.434-43.148 11.844-37.199 8.895 4.484 19.367 29.777 43.18 11.879 23.75-17.828-4.512-40.137-11.906-52.051-7.457-11.973-10.465-31.242-35.727-22.312-25.316 8.934-29.766-2.973-31.273-11.902-1.5-8.934-17.797-16.363-38.668-10.441-20.875 5.957-54.957-26.691-71.387-43.113-7.086-7.055-51.547-21.289-65.031-4.18 37.625 73.090 94.996 134.281 166.742 174.266zM197.402 175.762c-81.859 75.949-133.402 184.039-133.402 304.238 0 19.223 1.953 37.957 4.496 56.488 21.145-6.793 49.895-18.574 55.988-45.227 8.895-13.379 26.691-55.059 44.621-77.371 28.723-35.953 9.031-53.359 11.906-81.855 14.852-7.422 37.164-23.781 59.477-35.758 22.309-11.871 38.738-43.113 4.516-55.023-7.457-5.953 1.437-34.254-13.414-40.176-9.574-3.82-21.859-16.391-34.188-25.316zM557.344 71.48c-25.074-4.734-50.848-7.48-77.281-7.48-92.77 0-178.246 30.883-247.512 82.395 2.398 1.898 4.375 3.293 7.199 5.668 3.75 3.156 7.25 6.406 8.437 7.406 27 10.781 34.5 35.094 36.937 53.406 14.125 11.531 22.75 27.312 24.125 45.281 2.688 34.688-22 64-47.563 77.594-10.437 5.594-20.812 12.25-30.25 18.312-1.125 0.688-2.188 1.375-3.312 2.062 3.125 19.938 4.625 49.875-24.062 85.812-8.688 10.781-19.375 31.594-27.188 46.781-4.063 7.906-7.75 14.969-10.938 20.5-15.594 47.461-65.184 64.348-88.301 71.41 4.016 15.977 8.727 31.57 14.539 46.754 9.539-6.375 21.801-12.039 40.887-12.039 24.25 0 59 9.594 75.188 25.719 21.125 21.156 31.937 28.094 34.187 30.031 27.602-5.75 57.598 0.223 75.625 20.969 43.273-6.98 54.914 16.344 76.5 48.281 6.664 8.063 16.824 21.156 21.836 37.762-2.164-28.809 29.098-21.605 51.004-5.656 16.355 11.871 35-0.758 48.414 0 13.348 0.715 16.293 17.859 22.313 26.758 5.953 8.965 31.93 20.836 19.301 33.469-12.688 12.629-73.672 21.559-89.242 1.5-7.988-10.305-32.785-38.734-45.414-44.621-2.328-1.090-3.395-3.191-4.52-5.207 1.195 6.082 1.758 12.527 0.934 19.465-1.012 8.613-4.48 19.91-13.055 30.957 19.109 5.434 16.98 25.945 13.699 36.605-3.73 11.91-23.094 11.91-29.051 9.652-5.957-2.223-16.355-9.652-16.355-9.652 0.473-3.047 0.703-8.246 1.277-13.789-8.488 3.676-17.133 6.133-26.016 6.133-0.75 0-1.437 0-2.125-0.031-2.105 3.273-5.281 4.957-7.953 7.398 43.953 15.836 91.105 24.914 140.453 24.914 68.223 0 132.48-16.82 189.348-46.055-8.691-9.121-16-19.547-19.598-34.727-30.625-3.969-57.875-25.844-68.188-53.188-20.16-21.773-21.797-41.453-18.266-56.172 4.039-3.937 7.672-9.316 11.215-11.566 18.648-11.914 17.074-33.5 2.227-37.23-9.926-2.516-14.309 4.77-16.293 13.113-13.012-6.477-23.301-17.48-27.57-31.832-12.5-3.25-24.063-10.281-33-20.312-13.625-15.312-20.062-35.969-17.625-56.75 1.063-9.281 3.438-17.906 6.937-25.688-9.25-6.75-17.687-14.844-24.062-23.937-21.938-11.937-52.812-34.094-64.563-68.375-5.312-11-8.437-24.812-8.875-38.25-6.5-9.625-14-23.437-16.312-40.281-4.75-35.094 17.437-57.906 33.937-70.344 19.875-46.219 48.75-69.656 87.375-69.656 14.312 0.312 27.375 2.125 39.625 3.937 8 1.156 15.437 2.437 22.75 2.437 0.812 0 1.563 0 2.25-0.063-6.75-18.656-3.625-33.25 1.75-43.531-27.328-29.965-18.297-85.535-5.781-116.051zM798.477 443.598c3.727-13.352 20.805-64.715 26.035-79.594 21.594-4.484 24.535-6.707 31.277-13.414 6.613-6.672-1.504-15.637-13.414-32.684-11.906-17.145-54.305-95.266-56.527-109.363-0.426-2.758-0.516-6.246-0.512-10.137-49.375-53.504-112.887-92.969-184.137-114.844-11.125 22.141-15.945 63.531-4.379 74.367 11.844 11.191 17.078 40.176 8.18 47.633-8.895 7.395 6.016 20.121 7.457 28.234 8.242 30.559-8.18 31.992-33.434 39.488-25.324 7.391-50.578-3.016-83.293-3.766-32.844-0.719-46.191 46.164-49.922 54.277-11.844 7.457-28.199 18.68-25.977 35 2.227 16.422 17.078 30.492 17.797 33.5-2.941 9.688 0 27.484 4.516 33.465 7.395 28.27 43.836 46.855 55.809 52.121 4.449 19.336 42.398 37.914 51.297 34.148 8.898-3.691 17.145-17.828 31.273 0 14.070 17.898 23.035 12.664 44.625 12.664 21.527 0 28.199-10.437 34.941-30.492 6.672-20.086 53.586-23.027 54.309-18.609 9.613 31.957 36.441 7.453 41.672 7.453 31.277 2.191 34.941 15.605 31.277 34.227-3.727 18.578-35 8.93-38.734 17.070-2.871 6.418-9.68 20.844-13.41 13.414-3.668-7.426-16.289-23.063-24.539-2.191-8.18 20.812-31.207 44.594-37.164 40.895-8.965-12.695-20.152-12.629-25.32-8.93-20.801 15.637-36.379-0.785-45.402-9.688-8.898-8.93-22.379-23.652-41.75-28.918-19.301-5.164-31.992 8.215-34.215 27.543-2.227 19.371 14.98 35.566 32.125 26.699 17.141-8.93 31.926-1.508 24.535 5.926-7.395 7.457-12.629 28.293-2.949 31.957 9.621 3.734 16.363 0 32.719 22.344 16.363 22.312 34.937 14.891 56.535 11.156 21.586-3.73 15.637 31.992 14.129 38.699s-27.543 21.563-29.77 16.395c-2.164-5.203 3.727-29.016-8.895-35.008-12.699-5.98-25.328 14.199-35.734 26.078-10.465 11.871 9.691 23.027 11.914 29.016 5.957 21.563 30.551 39.426 53.586 27.477 23.027-11.938 27.477-2.973 26.043 0.793-11.98 14.129-11.582 39.617 0 52.043 2.945 3.176 5.609 4.617 8.375 6.664 106.539-70.738 178.020-189.328 185.172-324.766-6.836 0.906-13.625 2.047-18.785 3.383-14.070 3.77-24.539-11.121-17.859-16.352 6.672-5.168 22.371-11.090 23.812-20.805 1.504-9.688-14.855-53.559-23.812-69.883-8.906-16.422-19.305-17.859-24.543-10.469-5.168 7.461-14.848 43.871-26.035 64.738-11.191 20.812-12.633 4.484-8.898-8.957z" />
<glyph unicode="&#xe636;" glyph-name="applications" d="M960 60.188l-259.703 259.812h195.703v64c-142.198 0-177.624 0-319.937 0 0-142.394 0-177.664 0-320h63.937v195.625l259.75-259.688 60.25 60.25zM512.063 65.605c-10.578-0.863-21.203-1.605-32-1.605-92.766 0-178.25 30.883-247.516 82.395 2.406 1.898 4.375 3.293 7.203 5.668 3.75 3.156 7.25 6.406 8.437 7.406 27 10.781 34.5 35.094 36.937 53.406 14.125 11.531 22.75 27.312 24.125 45.281 2.688 34.688-22 64-47.563 77.594-10.437 5.594-20.812 12.25-30.25 18.312-1.125 0.688-2.188 1.375-3.312 2.062 3.125 19.938 4.625 49.875-24.062 85.812-8.688 10.781-19.375 31.594-27.188 46.781-4.063 7.906-7.75 14.969-10.938 20.5-15.594 47.461-65.187 64.348-88.297 71.41 4.016 15.977 8.719 31.57 14.531 46.754 9.547-6.375 21.805-12.039 40.891-12.039 24.25 0 59 9.594 75.188 25.719 21.125 21.156 31.937 28.094 34.187 30.031 27.602-5.75 57.594 0.223 75.625 20.969 43.273-6.98 54.914 16.344 76.5 48.281 6.664 8.063 16.828 21.156 21.836 37.762-2.164-28.809 29.102-21.605 51.008-5.656 16.352 11.871 35-0.758 48.406 0 13.352 0.715 16.297 17.859 22.312 26.758 5.953 8.965 31.937 20.836 19.305 33.469-12.688 12.629-73.672 21.559-89.242 1.5-7.984-10.305-32.781-38.734-45.414-44.621-2.328-1.090-3.398-3.191-4.523-5.207 1.203 6.082 1.766 12.527 0.937 19.465-1.016 8.613-4.484 19.91-13.055 30.957 19.109 5.434 16.977 25.945 13.695 36.605-3.727 11.91-23.094 11.91-29.047 9.652-5.953-2.223-16.359-9.652-16.359-9.652 0.477-3.047 0.703-8.246 1.281-13.789-8.484 3.676-17.133 6.133-26.016 6.133-0.75 0-1.437 0-2.125-0.031-2.109 3.273-5.281 4.957-7.953 7.398 43.953 15.836 91.109 24.914 140.453 24.914 68.219 0 132.484-16.82 189.344-46.055-8.688-9.121-16-19.547-19.594-34.727-30.625-3.969-57.875-25.844-68.188-53.188-20.156-21.773-21.797-41.453-18.266-56.172 4.039-3.937 7.672-9.316 11.219-11.566 18.641-11.914 17.070-33.5 2.219-37.23-9.922-2.516-14.305 4.77-16.289 13.113-13.008-6.477-23.305-17.48-27.57-31.832-12.5-3.25-24.063-10.281-33-20.312-13.625-15.312-20.062-35.969-17.625-56.75 1.063-9.281 3.438-17.906 6.937-25.688-9.25-6.75-17.687-14.844-24.062-23.937-21.938-11.937-52.812-34.094-64.563-68.375-5.312-11-8.437-24.812-8.875-38.25-6.5-9.625-14-23.437-16.312-40.281-4.75-35.094 17.437-57.906 33.937-70.344 19.875-46.219 48.75-69.656 87.375-69.656 5.531 0.121 10.125 1.043 15.312 1.523v44.613c-5.328-0.578-10.586-1.234-16.328-1.367-32.844-0.719-46.195 46.164-49.922 54.277-11.844 7.457-28.203 18.68-25.984 35 2.234 16.422 17.078 30.492 17.797 33.5-2.937 9.688 0 27.484 4.516 33.465 7.398 28.27 43.844 46.855 55.812 52.121 4.453 19.336 42.398 37.914 51.297 34.148 8.898-3.691 17.141-17.828 31.273 0 14.070 17.898 23.039 12.664 44.625 12.664 21.523 0 28.195-10.437 34.945-30.492 6.672-20.086 53.578-23.027 54.305-18.609 9.617 31.957 36.445 7.453 41.672 7.453 31.273 2.191 34.945 15.605 31.273 34.227-3.719 18.578-35 8.93-38.734 17.070-2.867 6.418-9.672 20.844-13.406 13.414-3.672-7.426-16.289-23.063-24.539-2.191-8.18 20.812-31.211 44.594-37.164 40.895-8.969-12.695-20.156-12.629-25.32-8.93-20.805 15.637-36.383-0.785-45.398-9.688-8.906-8.93-22.383-23.652-41.75-28.918-19.305-5.164-32 8.215-34.219 27.543-2.227 19.371 14.984 35.566 32.125 26.699 17.141-8.93 31.922-1.508 24.531 5.926-7.391 7.457-12.625 28.293-2.945 31.957 9.617 3.734 16.367 0 32.719 22.344 16.367 22.312 34.937 14.891 56.539 11.156 21.578-3.73 15.633 31.992 14.125 38.699s-27.547 21.563-29.766 16.395c-2.172-5.203 3.719-29.016-8.898-35.008-12.695-5.98-25.328 14.199-35.734 26.078-10.461 11.871 9.695 23.027 11.914 29.016 5.953 21.563 30.547 39.426 53.586 27.477 23.023-11.938 27.477-2.973 26.039 0.793-11.977 14.129-11.578 39.617 0 52.043 2.953 3.176 5.609 4.617 8.375 6.664 106.547-70.738 178.023-189.328 185.172-324.766-6.828 0.906-13.625 2.047-18.781 3.383-14.070 3.77-24.539-11.121-17.859-16.352 6.672-5.168 22.375-11.090 23.812-20.805 0.516-3.336-1.469-11.242-4.156-20.168h80.766c0.711 10.625 1.625 21.199 1.625 32 0 264.688-215.305 480-479.953 480-264.711 0-480.047-215.312-480.047-480s215.336-480 480.047-480c10.812 0 21.391 0.914 32.016 1.621v63.984zM278.273 842.852c16.805 1.582 31.523 0.57 32.227-4.945 1.437-11.937 1.437-43.148 11.844-37.199 8.891 4.484 19.367 29.777 43.18 11.879 23.75-17.828-4.508-40.137-11.906-52.051-7.461-11.973-10.461-31.242-35.727-22.312-25.312 8.934-29.766-2.973-31.273-11.902-1.5-8.934-17.797-16.363-38.664-10.441-20.875 5.957-54.961-26.691-71.391-43.113-7.086-7.055-51.547-21.289-65.031-4.18 37.625 73.090 95 134.281 166.742 174.266zM197.406 175.762c-81.859 75.949-133.406 184.039-133.406 304.238 0 19.223 1.953 37.957 4.5 56.488 21.141-6.793 49.891-18.574 55.984-45.227 8.891-13.379 26.687-55.059 44.625-77.371 28.719-35.953 9.031-53.359 11.906-81.855 14.844-7.422 37.156-23.781 59.469-35.758 22.312-11.871 38.742-43.113 4.516-55.023-7.453-5.953 1.437-34.254-13.406-40.176-9.578-3.82-21.859-16.391-34.187-25.316z" />
<glyph unicode="&#xe637;" glyph-name="arrow-up-circled" d="M480 627.055l-288-288.012v90.504l288 287.996 288-288v-90.5zM480.051 960c-264.715 0-480.051-215.312-480.051-480s215.336-480 480.051-480c264.645 0 479.949 215.312 479.949 480s-215.305 480-479.949 480zM480.063 64c-229.438 0-416.063 186.625-416.063 416s186.625 416 416.063 416c229.375 0 415.937-186.625 415.937-416s-186.563-416-415.937-416z" />
<glyph unicode="&#xe638;" glyph-name="arrow-down-circled" d="M480 332.945l-288 288.012v-90.504l288-287.996 288 288v90.5zM480.051 960c-264.715 0-480.051-215.312-480.051-480s215.336-480 480.051-480c264.645 0 479.949 215.312 479.949 480s-215.305 480-479.949 480zM480.063 64c-229.438 0-416.063 186.625-416.063 416s186.625 416 416.063 416c229.375 0 415.937-186.625 415.937-416s-186.563-416-415.937-416z" />
<glyph unicode="&#xe639;" glyph-name="arrow-left-circled" d="M332.938 479.997l288.016 288.001h-90.505l-288-288.001 288-288h90.501zM959.997 479.948c0.002 264.715-215.311 480.051-480 480.051s-480.005-215.338-480.007-480.053c-0.002-264.645 215.311-479.95 480-479.949s480.005 215.306 480.007 479.952zM63.99 479.934c0.002 229.438 186.629 416.064 416.006 416.065s416.002-186.624 416-416.062c-0.002-229.375-186.629-415.939-416.006-415.94s-416.002 186.562-416 415.937z" />
<glyph unicode="&#xe63a;" glyph-name="arrow-right-circled" d="M627.055 480l-288.012-288h90.504l287.996 288-288 288h-90.5zM0 480.051c0-264.715 215.313-480.050 480-480.050s480 215.336 480 480.051c0 264.644-215.313 479.949-480 479.949s-480-215.305-480-479.949zM896.001 480.063c0-229.437-186.625-416.062-416-416.062s-416 186.625-416 416.062c0 229.375 186.625 415.937 416 415.937s416-186.562 416-415.937z" />
<glyph unicode="&#xe63b;" glyph-name="minus-circled" d="M192 512h576v-64h-576v64zM480.051 960c-264.715 0-480.051-215.312-480.051-480s215.336-480 480.051-480c264.645 0 479.949 215.312 479.949 480s-215.305 480-479.949 480zM480.063 64c-229.438 0-416.063 186.625-416.063 416s186.625 416 416.063 416c229.375 0 415.937-186.625 415.937-416s-186.563-416-415.937-416z" />
<glyph unicode="&#xe63c;" glyph-name="plus-circled" d="M768 512h-256.039l0.039 256.012h-63.91l-0.039-256.012h-256.055v-64h256.043l-0.039-255.988h63.91l0.039 255.988h256.051zM480.051 960c-264.715 0-480.051-215.312-480.051-480s215.336-480 480.051-480c264.645 0 479.949 215.312 479.949 480s-215.305 480-479.949 480zM480.063 64c-229.438 0-416.063 186.625-416.063 416s186.625 416 416.063 416c229.375 0 415.937-186.625 415.937-416s-186.563-416-415.937-416z" />
<glyph unicode="&#xe63d;" glyph-name="add-attachment" d="M64 896v-832h832v832h-832zM832 128h-704v704h704v-704zM448 704h64v-448h-64v448zM256 448v64h448v-64h-448z" />
<glyph unicode="&#xe63e;" glyph-name="attachment" d="M285.5-63.937c-64.469 0-125.094 25.063-170.688 70.688-94.031 94.063-94.063 247.188-0.063 341.25l559 559c34.219 34.156 79.688 52.969 128.031 52.969s93.781-18.812 127.906-52.969c34.219-34.188 53.063-79.656 53.063-128.031 0-48.344-18.844-93.844-53.063-128.094l-473.563-473.437c-21.188-21.125-49.281-32.75-79.063-32.75-29.844 0-57.875 11.625-78.937 32.812-21.125 20.937-32.781 48.875-32.812 78.688-0.063 29.937 11.594 58.125 32.812 79.312l386.125 385.937 42.688-42.688-386.25-386.063c-9.937-9.812-15.375-22.812-15.375-36.625 0-28.375 23.125-51.5 51.563-51.5 13.875 0 26.906 5.5 36.688 15.375l473.5 473.75c22.812 22.75 35.344 53 35.344 85.25s-12.531 62.563-35.344 85.375c-22.75 22.75-53.031 35.281-85.281 35.281-32.281 0-62.594-12.531-85.406-35.281l-558.937-559.063c-34.156-34.188-52.969-79.625-52.969-127.937 0.031-48.312 18.844-93.75 53.031-127.875 34.156-34.25 79.625-53.125 128-53.125 48.344 0 93.75 18.875 127.875 53l471.5 471.5 42.688-42.688-471.5-471.437c-45.531-45.563-106.094-70.625-170.563-70.625z" />
<glyph unicode="&#xe63f;" glyph-name="calendar" d="M64-64h832v640h-832v-640zM704 512h128v-128h-128v128zM704 320h128v-128h-128v128zM704 128h128v-128h-128v128zM512 512h128v-128h-128v128zM512 320h128v-128h-128v128zM512 128h128v-128h-128v128zM320 512h128v-128h-128v128zM320 320h128v-128h-128v128zM320 128h128v-128h-128v128zM128 512h128v-128h-128v128zM128 320h128v-128h-128v128zM128 128h128v-128h-128v128zM704 896v64h-64v-64c-69.937 0-250.955 0-320 0v64h-64v-64h-192v-256h832v256c-265.413 0-77.070 0-192 0zM832 704h-704v128h128v-64h64v64c69.093 0 250.099 0 320 0v-64h64v64c46.318 0 81.682 0 128 0v-128z" />
<glyph unicode="&#xe640;" glyph-name="close-circled" d="M480.051 960c-264.715 0-480.051-215.312-480.051-480s215.336-480 480.051-480c264.645 0 479.949 215.312 479.949 480s-215.305 480-479.949 480zM480.063 64c-229.438 0-416.063 186.625-416.063 416s186.625 416 416.063 416c229.375 0 415.937-186.625 415.937-416s-186.563-416-415.937-416zM525.258 480l168.57 168.57-45.258 45.254-168.57-168.566-168.566 168.57-45.254-45.254 168.566-168.57-170.988-170.984 45.258-45.258 170.984 170.984 170.984-170.984 45.254 45.254z" />
<glyph unicode="&#xe641;" glyph-name="browser" d="M0 832v-768h1024v768h-1024zM256 128h-192v512h192v-512zM960 128h-640v512h640v-512zM960 704h-896v64h896v-64z" />
<glyph unicode="&#xe642;" glyph-name="collection" d="M1024 640v-704h-704v64h640v640zM832 768v-640h-640v-64h704v704zM64 896v-704h704v704h-704zM704 632.402v-376.402h-576v576h576v-199.598zM620.812 256v26.437c0 10.148-8.227 18.375-18.375 18.375-1.312 10.156-4.188 14.25-10.5 21.281-9.437 13.531-30.688 22.469-60.187 22.969-27.875 0.531-36.125 14.406-38.125 25.937-3.5 20.625 9 46.031 28 56.5l13.072 7.225c8.167 4.514 13.957 12.367 15.854 21.504s-0.29 18.646-5.986 26.037l-5.19 6.734c0.25 0.25 0.563 0.531 0.875 0.812 32.75 30.031 44.688 48.063 45.563 68.781-0.25 8.937 0.437 15.156 5 18.219 1.25 0.875 4.375 2.531 10.5 2.531 5.937 0 12.875-1.531 20.75-4.594l10.926-4.255c13.803-5.375 29.476-0.128 37.261 12.473 10.211 1.633 24.469 3.312 33.75 4.355v45.078c-29.688-3.309-60.5-6.996-63.375-12.059-0.75-1.156-1.5-2.535-2.312-3.844-37.688 14.688-61.375 5.063-72.5-2.496-16.937-11.379-25.937-30.937-24.75-53.473-0.188-4.348-5.812-14.504-31.188-37.777-4.438-4.098-8.063-7.504-10.25-9.91-6.188-6.785-17.062-23.629 0.312-46.125-35.187-19.438-57.312-63.281-50.437-103.406 5.188-29.816 29.25-62.066 81.437-63.031 14-0.25 24.063-3.125 27.563-7.969 0.25-0.281 0.312-4.312 0.375-36.312h61.937zM312.75 294.937c33.937 19.969 49.812 54.059 40.563 86.871-8.563 30.406-36.688 51.535-74.375 57.379 1.75 5.063 6.312 11.219 15.937 18.437 36.813 27.621 38.5 64.934 23.875 89.625-12.563 21.184-39.688 36.371-72.5 33.715 3.188 3.316 5.75 7.25 7.625 11.66 7.398 18.438 1.969 47.988 2.125 47.375 12.375-14.535 39.125-32.379 76.5-32.031 14.125 0.281 34.437 5.437 51 28.406 7.5 10.496 12.25 20.59 15.25 29.934 6.563-2.996 34.25-13.996 58.937-2.625 13.812 6.344 23.812 18.344 28.312 33.879 4.812 16.715 22.5 40.441 31.25 48.063 7.063 1.465 13.875 5.031 18.312 10.219 4.563 5.312 17.125 12.156-5 76.156h-63.375v-26.446c0-10.144 8.218-18.365 18.362-18.372 6.139-0.004 11.451-0.012 11.451-0.025l-9.188-7.75c-13.937-12.125-37.25-43.031-44.875-69.438-1.25-4.312-3.25-5.25-3.937-5.562-1.875-0.156-3.563-0.219-5.188-0.219-9.125 0-14.563 2.031-16.437 2.875l-27.047 12.363c-4.778 2.184-10.262 2.218-15.066 0.095s-8.471-6.202-10.073-11.205l-9.064-28.315c-1.937-6-4.937-11.781-9.062-17.594-6.063-8.375-11.438-9.563-15.438-9.656-10.986 0.025-26.596 10.218-39.415 22.435-5.938 5.66-14.889 6.69-21.966 2.541l-51.023-29.91c-6.996-4.101-10.485-12.313-8.567-20.192 2.339-9.607 2.366-15.992 1.784-18.030l-21.743-22.596c-9.302-9.667-11.587-24.109-5.723-36.175s18.63-19.188 31.978-17.854c18.944 1.893 33.485 3.343 33.551 3.343 16.812 0 26.188-5.969 29.688-11.906 2.688-4.531 6.875-16.625-12.188-30.937-16.063-12.062-26.375-25.031-31.375-39.656l-5.011-14.464c-3.106-8.965-2.074-18.846 2.818-26.976s13.139-13.669 22.515-15.123l15.116-2.344c20.313-3.125 34.563-12.562 38.125-25.25 4.312-15.344-7.563-28.719-20.188-36.094-10.688-6.312-20.125-17.125-28.563-32.75h-18.25c-17.673 0-32-14.327-32-32v-12.812h79.688c11.125 32 20.812 38.309 21.875 38.937z" />
<glyph unicode="&#xe643;" glyph-name="comment" d="M511.984 896c-287.078 0-511.984-142.863-511.984-325.27 0-114.641 89.719-217.563 237.367-275.895-2.191-26.809-10.375-69.715-34.859-132.563l-62.509-160.645 156.102 73.215c5.93 2.762 132.93 63.25 209.918 170.684 1.988 0 3.977 0 5.961 0 287.113 0 512.020 142.863 512.020 325.203 0 182.402-224.906 325.27-512.016 325.27zM512 309.531h-32.875l-25.125-26.719c-67.625-94.344-183.812-149.469-185-150l-11.375-5.344 4.5 11.594c22.437 57.531 35.563 108.219 39.063 150.563l3.812 47.312-44.125 17.438c-123.25 48.688-196.875 129.562-196.875 216.344 0 144.062 201 261.281 448 261.281s448-117.219 448-261.281c0-144.031-201-261.188-448-261.188zM256 704h512v-64h-512v64zM256 576h384v-64h-384v64z" />
<glyph unicode="&#xe644;" glyph-name="configure-popup" d="M192 832h320v-64h-320v64zM448 704h320v-64h-320v64zM192 448h192v256h-192v-256zM256 640h64v-128h-64v128zM320 235.551l-84-67.172 18.059 72.121c4.75 19.125 0.5 39.25-11.559 54.754-12.246 15.621-30.813 24.746-50.5 24.746h-64.063c-35.187 0-63.937 28.75-63.937 64v448c0 35.125 28.75 64 63.937 64h704c35.25 0 64.063-28.875 64.063-64v-259.914c3.012 0.469 5.957 1.477 8.996 1.477 15.188 0 30.32-5.875 41.758-17.312l13.246-13.246v288.996c0 70.625-57.312 128-128 128h-704c-70.688 0-128-57.375-128-128v-448c0-70.75 57.312-128 128-128h64l-64-256 213.605 170.883c-12.918 10.91-21.605 26.527-21.605 44.492v20.176zM800 256c0-53.019-42.981-96-96-96s-96 42.981-96 96c0 53.019 42.981 96 96 96s96-42.981 96-96zM1024 213.191v80.621l-102.688 13.441c-5.313 21.559-13.875 41.625-24.934 60.121l66.621 85.559-57.063 57.063-85.754-66.43c-18.309 10.996-38.559 19.437-60 24.75l-13.375 107.684h-80.621l-13.563-107.684c-21.437-5.312-41.504-13.754-60.125-24.75l-85.434 66.43-57.063-57.063 66.43-85.434c-10.992-18.621-19.437-38.688-24.746-60.246l-107.688-13.441v-80.621l107.688-13.504c5.309-21.312 13.754-41.563 24.746-60l-66.43-85.625 56.934-56.934 85.563 66.621c18.621-11.312 38.688-19.75 60.125-24.937l13.434-102.813h80.75l13.375 102.812c21.441 5.187 41.691 13.625 60.129 24.937l85.5-66.621 57.188 56.934-66.621 85.625c11.184 18.437 19.621 38.688 24.934 60l102.687 13.504zM704 96c-88.367 0-160 71.633-160 160s71.633 160 160 160 160-71.633 160-160-71.633-160-160-160z" />
<glyph unicode="&#xe645;" glyph-name="contact" d="M0 832v-768h1024v768h-1024zM960 128h-896v544.492l448.125-298.742 447.875 300.578v-546.328zM960 751.395l-448-300.641-448 298.664v18.582h896v-16.605z" />
<glyph unicode="&#xe646;" glyph-name="dashboard" d="M164.445 209.688c-55.836 65.078-90.457 147.852-97.516 238.312h189.070v64h-190.379c6.953 90.637 42.906 173.141 98.816 238.309l66.664-66.66 45.254 45.254-66.66 66.66c65.16 55.898 147.664 91.852 238.305 98.812v-190.375h64v190.18c90.625-6.949 172.98-42.91 238.129-98.801l-66.477-66.477 45.254-45.254 66.641 66.637c1.688-1.969 3.609-3.723 5.266-5.723l45.234 45.234c-88.105 103.949-219.383 170.203-365.996 170.203-264.715 0-480.051-215.312-480.051-480 0-120.844 45.23-231.082 119.207-315.551 14.078-16.078 29.18-31.176 45.258-45.254l111.898 111.898-45.258 45.254-66.66-66.66zM940.836 613.086l-52.773-52.777c5.109-26.008 7.938-52.824 7.938-80.309 0-103.195-37.984-197.535-100.422-270.324l-66.672 66.676-45.254-45.254 111.879-111.934c16.078 14.074 31.172 29.176 45.25 45.25 73.984 84.473 119.219 194.727 119.219 315.586 0 46.211-6.922 90.77-19.164 133.086zM918.625 681.375l-45.25 45.25-305.234-305.234c-25.289 16.746-55.539 26.609-88.141 26.609-88.367 0-160-71.633-160-160s71.633-160 160-160 160 71.633 160 160c0 32.602-9.863 62.852-26.609 88.141l305.234 305.234zM480 192c-52.937 0-96 43.063-96 96s43.063 96 96 96 96-43.063 96-96-43.063-96-96-96z" />
<glyph unicode="&#xe647;" glyph-name="deny" d="M480.047 960c-264.711 0-480.047-215.312-480.047-480s215.336-480 480.047-480c264.648 0 479.953 215.312 479.953 480s-215.305 480-479.953 480zM64 480c0 229.375 186.625 416 416.063 416 103.828 0 198.656-38.5 271.609-101.637l-586.016-586.016c-63.148 72.969-101.656 167.812-101.656 271.652zM480.063 64c-102.563 0-196.414 37.48-269.023 99.219l585.758 585.766c61.734-72.602 99.203-166.438 99.203-268.984 0-229.375-186.563-416-415.937-416z" />
<glyph unicode="&#xe648;" glyph-name="description" d="M512.006 192l-64.004-0.002-0.011 448 64.004 0.002 0.011-448zM512.001 704l-64.004-0.002-0.002 64 64.004 0.002 0.002-64zM384 256h192v-64h-192v64zM480.051 960c-264.715 0-480.051-215.312-480.051-480s215.336-480 480.051-480c264.645 0 479.949 215.312 479.949 480s-215.305 480-479.949 480zM480.063 64c-229.438 0-416.063 186.625-416.063 416s186.625 416 416.063 416c229.375 0 415.937-186.625 415.937-416s-186.563-416-415.937-416z" />
<glyph unicode="&#xe649;" glyph-name="directions" d="M686.52 768c-33.513 0-56.999 0-90.512 0l192.004-192h-404.012c-105.602 0-192-86.398-192-192v-320h64v320c0 70.563 57.406 128 128 128h404.012l-192.004-192c60.461 0 90.512 0 90.512 0l224 224-224 224z" />
<glyph unicode="&#xe64a;" glyph-name="directions2" d="M64 896v-896h896v896h-896zM896 64h-768v768h768v-768zM576 349.719l192 192.004-192 192v-67.879l89.84-89.844h-153.84c-140.801 0-256-115.199-256-256v-128h64v128c0 105.875 86.125 192 192 192h158.395l-94.395-94.398v-67.883z" />
<glyph unicode="&#xe64b;" glyph-name="documentation" d="M640 192h128v-64h-128v64zM640 576h128v-64h-128v64zM640 448h128v-64h-128v64zM192 768h320v-64h-320v64zM640 320h128v-64h-128v64zM192 576h320v-64h-320v64zM192 448h384v-64h-384v64zM704 960h-640v-1024h832v832l-192 192zM832 0h-704v896h549.5l154.5-154.5v-741.5zM192 320h384v-64h-384v64zM192 192h320v-64h-320v64z" />
<glyph unicode="&#xe64c;" glyph-name="duplicate" d="M768 960h-448c0-46.383 0-88.621 0-128h64v64h256c0-64.531 0-106.484 0-165.5l90.5-90.5h165.5v-448h-128v-64c60.82 0 123.652 0 192 0 0 269.785 0 371.789 0 640l-192 192zM896 704h-192v192h37.5l154.5-154.5v-37.5zM502.418 768c-16.422 0-21.055 0-20.117 0-39.383 0-148 0-418.301 0 0-349.437 0-429.18 0-832 131.012 0 495.844 0 640 0 0 269.785 0 371.789 0 640l-192 192c-3.625 0-6.719 0-9.582 0zM640 0c-258.336 0-248.855 0-512 0 0 264.863 0 432.828 0 704h256c0-92.773 0-138.031 0-256h256v-448zM640 512h-192v192h37.5l154.5-154.5v-37.5zM192 320c45.781 0 338.219 0 384 0v64c-180.895 0-205.199 0-384 0v-64zM192 192c139.941 0 245.992 0 384 0v64c-140.891 0-247.91 0-384 0v-64zM192 512h128v-64h-128v64zM192 128h384v-64h-384v64zM768 576h64v-64h-64v64zM768 448h64v-64h-64v64z" />
<glyph unicode="&#xe64d;" glyph-name="review" d="M638.301 384h257.699v64h-257.297c1.891-21.305 1.676-42.645-0.402-64zM601.137 576c10.41-20.289 18.867-41.68 25.215-64h269.648v64h-294.863zM512.125 237.172c39.359 49.25 63.875 110.875 63.875 178.828 0 159.059-128.941 288-288 288s-288-128.941-288-288 128.941-288 288-288c67.973 0 129.613 24.531 178.875 63.914l228.461-228.445 45.25 45.254-228.461 228.449zM288 192c-123.5 0-224 100.5-224 224s100.5 224 224 224 224-100.5 224-224-100.5-224-224-224zM625.937 320c-6.418-22.047-15.18-43.398-25.969-64h296.031v64h-270.063zM832 960h-448c0-78.492 0-146.277 0-205.648 22.32-6.344 43.715-14.805 64-25.215v166.863h256c0-92.773 0-138.031 0-256h256v-448h-312.172l63.984-64c98.629 0 198.105 0 312.187 0 0 269.785 0 371.789 0 640l-192 192zM960 704h-192v192h37.5l154.5-154.5v-37.5z" />
<glyph unicode="&#xe64e;" glyph-name="environment-settings" d="M480 640c-123.5 0-224-100.5-224-224s100.5-224 224-224 224 100.5 224 224-100.5 224-224 224zM480 256c-88.25 0-160 71.75-160 160s71.75 160 160 160 160-71.75 160-160-71.75-160-160-160zM512 704h-64v192h64v-192zM448 128h64v-192h-64v192zM208.469 642.273l-90.516 90.512 45.258 45.254 90.508-90.512-45.25-45.254zM751.531 189.727l90.516-90.512-45.258-45.254-90.508 90.512 45.25 45.254zM208.469 189.727l45.258-45.254-90.508-90.512-45.25 45.258 90.5 90.508zM751.531 642.273l-45.266 45.254 90.516 90.512 45.25-45.258-90.5-90.508zM192 384h-192v64h192v-64zM960 448v-64h-192v64h192z" />
<glyph unicode="&#xe64f;" glyph-name="error" d="M678.824 960h-397.648l-281.176-281.176v-397.648l281.176-281.176h397.648l281.176 281.176v397.648l-281.176 281.176zM896 307.688l-243.688-243.688h-344.625l-243.688 243.688v344.625l243.688 243.688h344.625l243.688-243.688v-344.625zM648.57 693.824l-168.57-168.566-168.566 168.57-45.254-45.254 168.566-168.57-170.988-170.984 45.258-45.258 170.984 170.984 170.984-170.984 45.254 45.254-170.98 170.984 168.57 168.57z" />
<glyph unicode="&#xe650;" glyph-name="error2" d="M448 768h64v-448h-64v448zM448 256h64v-64h-64v64zM678.824 960h-397.648l-281.176-281.176v-397.648l281.176-281.176h397.648l281.176 281.176v397.648l-281.176 281.176zM896 307.688l-243.688-243.688h-344.625l-243.688 243.688v344.625l243.688 243.688h344.625l243.688-243.688v-344.625z" />
<glyph unicode="&#xe651;" glyph-name="experimental" d="M967.203 47.328c-145.703 252.359-205.281 355.57-327.203 566.734v281.937h32c17.602 0 32 14.398 32 32s-14.398 32-32 32c-165.883 0-151.305 0-320 0-17.602 0-32-14.398-32-32s14.398-32 32-32h32v-281.949c-121.922-211.176-181.516-314.387-327.234-566.789-13.25-22.949-13.203-51.242 0.063-74.188 13.266-22.941 37.75-37.074 64.25-37.074 2.406 0 4.539 0 6.922 0 329.937 0 438.063 0 768 0 2.406 0 4.563 0 7 0 26.5 0 50.984 14.191 64.219 37.148 13.242 22.957 13.234 51.23-0.016 74.18zM911.75 4.937c-1.75-3-5.125-4.937-8.75-4.937h-781.937c-3.688 0-7 1.937-8.875 5.188-1.812 3.063-1.812 6.937 0 10.063l335.812 581.687v299.063h128v-64h-64v-64h64v-128h-64v-64h76.086l73.891-128h-149.977v-64h186.922l73.891-128h-260.812v-64h297.75l102-176.688c1.812-3.188 1.812-7.125 0-10.375z" />
<glyph unicode="&#xe652;" glyph-name="feature-layer" d="M888.934 853.809c0 0-204.809 68.25-375.496 0-170.629-68.281-375.437 0-375.437 0l-136.563-819.152c0 0 204.871-102.406 512 0 307.246 102.34 512.059 0 512.059 0l-136.562 819.152zM493.188 95.375c-84-28.031-167.812-42.219-249-42.219-75.375 0-134.125 12.437-170.875 23.25l116.438 698.5c39.625-7.937 92.5-15.437 150.5-15.437 72.812 0 139.063 11.75 196.937 34.937 42.75 17.063 93.063 25.75 149.437 25.75 59.125 0 112.437-9.625 145.937-17.406l112.625-675.688c-43.125 9.437-98 17.094-162.437 17.094-95 0-192.375-16.406-289.562-48.781z" />
<glyph unicode="&#xe653;" glyph-name="filter" d="M895 960c-305.816 0-461.074 0-767 0 0-46.316 0-81.684 0-128l256-256v-64l64-512h192l64 512v64l256 256c0 46.316 0 81.684 0 128h-65zM583.5 64h-79l-48 384h175l-48-384zM640 515.999l-0.5-3.999h-191l-0.5 3.999v60.001h192v-60.001zM677.5 640h-267l-128 128h523l-128-128zM896 858.5l-26.5-26.5h-651l-26.5 26.5v37.5h704v-37.5z" />
<glyph unicode="&#xe654;" glyph-name="grant" d="M480.051 960c-264.715 0-480.051-215.312-480.051-480s215.336-480 480.051-480c264.645 0 479.949 215.312 479.949 480s-215.305 480-479.949 480zM480.063 64c-229.438 0-416.063 186.625-416.063 416s186.625 416 416.063 416c229.375 0 415.937-186.625 415.937-416s-186.563-416-415.937-416zM744.566 663.493l-328.566-328.582-140.043 140.047-45.25-45.25 185.293-185.297 373.824 373.824z" />
<glyph unicode="&#xe655;" glyph-name="group" d="M288.074 832.016c-88.504 0-160.133-71.598-160.133-160.016 0-88.312 71.629-160.016 160.133-160.016 88.184 0 159.867 71.703 159.867 160.016 0 88.418-71.684 160.016-159.867 160.016zM288.063 576c-53 0-96.125 43.063-96.125 96s43.125 96 96.125 96c52.875 0 95.875-43.063 95.875-96s-43-96-95.875-96zM360.59 192h-293.090c13.906 108.031 108.25 192 220.5 192 66.527 0 126.367-29.871 167.359-77.18 16.809 13.445 34.734 25.184 53.789 35.332-52.406 64.332-131.512 105.848-221.148 105.848-148.098 0-268.664-112.207-284.773-256h-0.027l-3.199-64h335.727c6.422 22.363 14.602 43.828 24.863 64zM956.801 64h-0.027c-16.109 143.793-136.676 256-284.773 256s-268.664-112.207-284.773-256h-0.027l-3.199-64h576l-3.199 64zM451.5 64c13.906 108.031 108.25 192 220.5 192 110.969 0 204.437-82.031 220.281-192h-440.781zM672.074 704.016c-88.504 0-160.133-71.598-160.133-160.016 0-88.312 71.629-160.016 160.133-160.016 88.184 0 159.867 71.703 159.867 160.016 0 88.418-71.684 160.016-159.867 160.016zM672.063 448c-53 0-96.125 43.063-96.125 96s43.125 96 96.125 96c52.875 0 95.875-43.063 95.875-96s-43-96-95.875-96z" />
<glyph unicode="&#xe656;" glyph-name="key" d="M704 768h128v-128h-128v128zM736 960c-159.066 0-288-128.996-288-288 0-46.43 12.012-89.656 31.512-128.488l-415.512-415.512v-128h128l64 64h127l0.664 127.664 0.336 0.336h128v128l95.512 95.512c38.836-19.504 82.063-31.512 128.488-31.512 159.066 0 288 128.879 288 288 0 159.004-128.934 288-288 288zM736 448c-33.563 0-67.156 8.312-99.781 24.688l-41.312 20.75-146.906-146.937v-90.5h-90.5l-37.375-37.344-0.469-26.656-0.312-64h-89.844l-64-64h-37.5v37.5l429.437 429.406-20.75 41.312c-16.375 32.625-24.688 66.219-24.688 99.781 0 123.5 100.5 224 224 224s224-100.5 224-224-100.5-224-224-224z" />
<glyph unicode="&#xe657;" glyph-name="labels" d="M963.055 534.047l-365.008 365.008c-6.496 6.496-14.992 9.746-23.5 9.746-8.434 0-16.934-3.25-23.437-9.746l-541.363-541.43c-6.246-6.25-9.746-14.625-9.746-23.371v-219.578c0-8.75 3.5-17.246 9.746-23.5l145.492-145.43c6.246-6.246 14.688-9.746 23.504-9.746h219.512c8.812 0 17.184 3.5 23.437 9.746l541.363 541.309c12.992 12.996 12.992 33.996 0 46.992zM385.437 0h-193.937l-127.5 127.437v193.938l510.625 510.625 321.437-321.437-510.625-510.563zM384 224c0-53.019-42.981-96-96-96s-96 42.981-96 96c0 53.019 42.981 96 96 96s96-42.981 96-96z" />
<glyph unicode="&#xe658;" glyph-name="tag" d="M768 640h-768v-448h768l256 224-256 224zM743.937 256h-679.937v320h679.937l182.875-160-182.875-160z" />
<glyph unicode="&#xe659;" glyph-name="layers" d="M959.984 323.392l-446.484-251.418-446.766 251.258-65.234-36.691 512-288 512 288zM513.5 958.504l-512-288 512-288 512 288-512 288zM132.063 670.5l381.437 214.563 381.437-214.563-381.437-214.563-381.437 214.563zM959.984 515.379l-446.484-251.418-446.766 251.258-65.234-36.691 512-288 512 288z" />
<glyph unicode="&#xe65a;" glyph-name="left-arrow" d="M512 877.543l-461.543-461.543 461.543-461.543v90.504l-338.429 339.039h850.43v63.375h-851.68l339.68 339.664z" />
<glyph unicode="&#xe65b;" glyph-name="right-arrow" d="M512 18.457l461.543 461.543-461.543 461.543v-90.504l338.43-339.039h-850.43v-63.375h851.68l-339.68-339.664z" />
<glyph unicode="&#xe65c;" glyph-name="link-external" d="M832 0h-768v768h640v64h-704v-896h896v384h-64zM832 477.719l192 192.004-192 192v-67.879l89.84-89.844h-89.84c-246.398 0-448-201.602-448-448v-64h64v64c0 211.75 172.25 384 384 384h94.395l-94.395-94.398v-67.883z" />
<glyph unicode="&#xe65d;" glyph-name="link" d="M72.707 826.233c-87.115-87.115-87.115-229.669 0-316.784l181.019-181.019c2.848-2.848 6.207-4.814 9.168-7.477-3.005 28.737-2.917 57.723 2.679 86.14l-147.611 147.611c-62.38 62.38-62.38 163.894 0 226.274s163.894 62.38 226.274 0l181.019-181.019c41.868-41.868 54.956-101.205 40.623-154.666-7.024-26.193-20.111-51.097-40.623-71.608s-45.415-33.599-71.608-40.623c3.466-18.288 12.228-35.761 26.354-49.887l6.654-6.654c30.607 10.736 59.494 27.547 83.856 51.909s41.172 53.249 51.909 83.856c26.398 75.265 11.557 161.441-44.432 223.761-2.663 2.961-4.629 6.32-7.477 9.168l-181.019 181.019c-87.115 87.115-229.669 87.115-316.784 0zM693.619 431.596l148.421-148.42c62.38-62.38 62.38-163.894 0-226.274s-163.894-62.38-226.274 0l-181.020 181.019c-62.38 62.38-62.38 163.894 0 226.274 20.271 20.271 44.835 33.256 70.686 40.352-3.306 18.725-11.526 36.253-25.431 50.158l-6.654 6.654c-30.607-10.736-59.494-27.547-83.856-51.909-87.115-87.115-87.115-229.669 0-316.784l181.019-181.019c87.115-87.115 229.669-87.115 316.784 0s87.115 229.669 0 316.784l-181.019 181.019c-2.889 2.889-6.289 4.886-9.295 7.582 2.989-28.273 2.171-57.010-3.362-85.436z" />
<glyph unicode="&#xe65e;" glyph-name="loading-indicator" d="M1024 448c0-0.138 0-0.301 0-0.464 0-282.77-229.23-512-512-512s-512 229.23-512 512c0 260.209 194.111 475.081 445.429 507.712l2.571 0.273v-58.176c-221.916-32.46-390.4-221.489-390.4-449.87 0-250.958 203.442-454.4 454.4-454.4s454.4 203.442 454.4 454.4c0 228.381-168.483 417.41-387.935 449.574l-2.465 0.297v58.24c253.809-32.777 447.909-247.499 448-507.575v-0.009z" />
<glyph unicode="&#xe65f;" glyph-name="maps" d="M0 960c0-248.105 0 548.398 0-1024h1024v1024h-1024zM331.812 76.937c-7.5-11.188-16-17.437-26.063-24.75-4.063-3-8-5.5-11.625-7.75-13.562-8.562-25.437-22.375-27.625-44.437l-0.266 0.020c0-0.008 0-0.012 0-0.020h-202.234v896l679.984 0.398c-0.172-0.105-0.258-0.297-0.438-0.398-3.961-10.004-16.203-27.879-24.359-33.5l-31.5-18.75c-22.563-14.375-75.063-51.625-75.063-87.25 0-14 5.688-24.063 9.437-30.625 2.938-5.312 4.188-7.75 4.188-10.25 0-3-2.188-5.563-11.375-13.437-8-6.937-18-15.5-22.625-29.375-1.625-4.812-2.375-9.812-2.375-14.812 0-4.688 0.937-10.563 2.063-16.812 1.125-5.875 1.625-9.312 2.375-10.688l-8.5-0.312c-17.563 0-32.25-16-36.375-20.937-5.188-6.25-13.562-18.875-10.062-36.188 6.188-31 6.25-49.625-11.563-59.25-18.188-9.875-27.5-26.25-34.937-39.5-9.25-16.437-11.875-18.625-17.312-18.625-3 0-5.875 1.875-11.688 6.375-8.25 6.312-19.5 14.937-36.875 14.937-25.625 0-46.5-22.25-46.5-49.625 0-12.312-11.375-36.875-26.312-36.875-14 0-16.688 4.75-19 8.75-9.75 17.437-23.063 41.25-53.812 41.25-30.688 0-55.625-26.312-55.625-58.688 0-10 2-17.812 3.812-24.688 1.312-4.875 2.312-8.75 2.312-13.125 0-6.063-2.563-10.75-6.688-18.375-4.875-9-11.5-21.25-11.5-37.812 0-23.188 20.875-42 46.5-42 13.688 0 23.063 3.625 30 6.375 4.625 1.875 7.75 3 12.875 3.625 1.063-1.063 3.063-6.188 3.063-10.437 0-7.688-7.875-15.563-17-24.625-16.875-16.75-42.312-42-21.688-83.25 8.437-16.875 27.937-21.375 45.188-25.437l8.125-1.875 6.063 0.063c2.937-3.875 8-11.437 8.937-12.5-0.5-4.5 0.25-8.25 0.375-8.25-0.062-3.063-0.75-7.188-4.312-12.563zM960 0c-167.224 0-119.507 0-290.188 0-7.875 30.937-34.75 44.875-56.563 50.937-5.437 1.563-10.812 3.063-16.812 5.25-8.625 3.188-17.5 6.437-25.688 10.625-2.25 1.188-9.125 4.75-6.312 20.75 3.75 11.25 3.312 13.75 2.812 17.5 0 3.188 5.437 6.125 19.563 12.937 16.375 8.063 41.188 20.25 41.188 49.875 0 11.25-4.937 18.812-9.125 24.063 0 2.75 0.437 4.812 8.563 12 7.75 7 22.125 20 22.125 42.875l1.937 27.125c1.75 0 4.625-0.375 8.312-2.25 4.937-2.312 14.063-6.563 25.625-6.563 25.063 0 38.625 18.75 49.625 33.937 3.563 5 5.5 7.625 8.625 7.625 0.75 0 1.625-0.188 2.625-0.5 0.688-1.875 1.688-4.437 3.437-8 3.937-8.125 8.875-18.25 18.188-26.375 17.688-15.5 38.125-18.75 51.437-19.75 9.75-1.563 21.5-2.812 34.375-2.812 10 0 20.625 0.75 37 3.563 8.625 1.5 16.375 2.25 23.563 2.25l10.312-0.375c11.937-1.375 20.688-5.375 26.25-10.688l2.75-6 6.375-46v-192zM960 307.063c-8.945 3.535-18.047 6.855-28.437 8.063l-10.563 1.188-5.375-0.063-1.312-0.437c-10.375 0-21.563-0.937-39.25-4-7.375-1.25-14.563-1.75-21.312-1.75-9.312 0-17.875 0.937-29.125 2.563-12.063 0.937-15.063 3.5-16 4.25-0.312 0.375-1.625 2.312-5.625 11.25-8.625 22.437-24.75 35.437-49.25 39.75l-10.437 0.75c-33.375 0-50.25-23.688-60.312-37.875l-1.5-2.125c-9.75 4-20 6.063-30 6.063-35.188 0-62.688-25.563-62.688-58.375l-1.812-27c-8.688-7.688-28.875-25.688-28.875-57.375 0-6.312 1.063-12.625 3.188-18.688l-1.812-0.937c-18-8.688-48.125-23.25-54.063-60.937l-1-10.063 0.375-2.063c-10.125-56.563 26.625-80.5 38.125-86.5 9.453-4.895 19.812-8.781 30.625-12.75h-236.563c1.609 1.109 3.109 1.949 4.75 3.188 11.437 8.312 27.125 19.75 40.625 40 9.25 13.875 14.188 29 14.563 45l-0.125 7.688 0.812 6.125-3.625 11.375c-3.188 9.937-9.375 21.188-18.563 33.5l-13.688 15.688c0 0-22.5 5.5-35.875 8.812 2.125 2.25 4.438 4.562 6.188 6.375 13.875 13.812 34.812 34.812 34.812 67.625 0 32-19.563 67.437-55.937 70.125l-8.812 0.437c-5.563 0-10.563-0.563-14.937-1.375 3.062 8.25 5.437 18 5.437 29.438 0 4.188-0.25 8.063-0.75 11.625 14.875-17 36.125-25.875 62.313-25.875 42.875 0 75 37.063 84.312 75.875 9.188-5.563 21.437-10.688 37.063-10.688 42.312 0 61.188 33.437 70.5 49.937 3.125 5.563 7.937 14 10.75 15.5 37.25 20.125 52.312 56.937 44.812 109.375 11.563 1.312 21.312 4.875 29.563 10.812l9.688 7.5 5.063 8.25c12.625 20.5 8.5 41.75 5.812 55.812l-0.312 1.25c1.125 1 2.375 2.063 3.437 3.063 11.25 9.563 32.125 27.438 32.125 59.188 0 14.25-4.375 27.188-12.75 37.75 4.75 6.75 18.812 21.75 44.75 38.25l34.25 20.563c16.141 11.066 52.734 41.25 52.219 83.812h154.531v-588.937z" />
<glyph unicode="&#xe660;" glyph-name="marketplace" d="M832 640h-127.797c-0.32 61.797-1.219 117.145-3.43 128-14.828 73.031-79.367 128-156.773 128-88.828 0-160-72.152-160-160v-96h-128l-128-704h832l-128 704zM448 736c0 52.937 43.063 96 96 96 45.437 0 85-32.25 94-76.75 0.125-1.687 1.688-21.187 2.188-115.25h-192.188v96zM204.688 0l104.75 576h469.125l104.75-576h-678.625z" />
<glyph unicode="&#xe661;" glyph-name="media" d="M704 672c0-53.019-42.981-96-96-96s-96 42.981-96 96c0 53.019 42.981 96 96 96s96-42.981 96-96zM896 768v128h-896v-704h128v-128h896v704h-128zM64 256v576h768v-576h-768zM960 128h-768v64h704v512h64v-576zM128 342l54.344 24.531c21.719 9.812 172.344 110.563 213.781 171.063 0.719 1.062 1.406 2.062 2.094 3.031 33.156-41.312 51.75-70.344 64.063-89.594 17.25-26.875 32.125-50.125 63.375-59.469l8.969-2.688 13.406-0.563c47.594 0 80.094 40.063 114.469 82.469 5.125 6.312 11.688 14.437 18.219 22.094 5.812-9.937 31.625-56.437 31.625-56.437l55.656-97.684v129.305l-0.043 0.074c-30.309 53.199-54.484 105.711-79.957 107.867-42 3.5-109-133.625-144-123.125-17.125 5.121-25.688 40.371-96 128-37.312 46.496-56 64-104.688-7.129-31.937-46.621-169.312-140.746-187.313-148.871l-27.999-12.641v-70.234z" />
<glyph unicode="&#xe662;" glyph-name="media2" d="M0 832v-64h64v-448h384v-256h-192v-64c249.337 0 194.902 0 448 0v64h-192v256h384v448h64v64c-330.719 0-700.125 0-960 0zM832 384h-704v384h704v-384z" />
<glyph unicode="&#xe663;" glyph-name="menu" d="M256 768h512v-64h-512v64zM256 512h512v-64h-512v64zM256 256h512v-64h-512v64z" />
<glyph unicode="&#xe664;" glyph-name="mobile" d="M768 960h-510.941c-35.922 0-65.059-30.219-65.059-67.516v-889.043c0-37.223 29.137-67.441 65.059-67.441h510.941c35.906 0 64 30.219 64 67.441v889.043c0 37.297-28.094 67.516-64 67.516zM768 0h-512v896h512v-896zM566.221 96.018c0-29.947-24.277-54.225-54.225-54.225s-54.225 24.277-54.225 54.225c0 29.947 24.277 54.225 54.225 54.225s54.225-24.277 54.225-54.225zM320 832v-640h384v640h-384zM640 256h-256v512h256v-512z" />
<glyph unicode="&#xe665;" glyph-name="phone" d="M876.547 36.395c-49.234 54.57-96.266 111.777-141.125 171.336-11.492 15.27-33.031 18.473-48.281 6.934l-52.273-39.57c-15.742-11.918-38.375-7.344-48.242 9.766l-245.789 425.703c-9.875 17.105-2.523 38.992 15.672 46.672l60.414 25.484c17.602 7.434 25.602 27.688 18.125 45.281-29.156 68.621-55.172 137.957-77.82 207.879-7.398 22.867-34.852 31.48-54.078 17.039-77.914-58.547-157.531-134.336-195.633-219.039 52.852-141.922 117.445-281.492 195.695-417.020 78.242-135.527 166.82-261.254 263.297-377.984 92.414-9.355 208.094 3.969 297.758 42.164 22.109 9.422 28.383 37.512 12.281 55.355zM625.688 0c-9.125 0-18.188 0.188-27 0.625-90.188 111.375-170.875 228.375-240.063 348.25-69.188 119.75-130.062 247.875-181.312 381.25 26.75 47.063 71.75 96.937 132.188 146.5 16.75-48.75 35.25-97.812 55.25-146.437l-33.125-14c-25.625-10.812-45.312-32.063-54.188-58.375-8.812-26.312-5.937-55.188 7.938-79.25l245.812-425.688c17.25-29.875 49.375-48.437 83.937-48.437 21.188 0 41.312 6.75 58.25 19.5l28.812 21.812c31.812-41.312 64.688-81.5 98.25-120-52.625-16.563-114.187-25.75-174.75-25.75z" />
<glyph unicode="&#xe666;" glyph-name="navigation" d="M0 448l426.684-85.34 85.316-426.66 512 1024-1024-512zM481.094 417.031l-285.625 57.156 685.437 342.719-342.719-685.438-57.094 285.563z" />
<glyph unicode="&#xe667;" glyph-name="pan" d="M794.516 639.988h-90.516l128.008-128-320.008 0.012v325.492l128-128.004v90.512l-160 160-160-160v-90.512l128 128.004c0-128.616 0-205.216 0-325.492h-325.484l128 127.988h-90.516l-160-160 160-160h90.508l-128 128 325.492 0.012v-320.004l-128 128.004v-90.512l160-160 160 160v90.512l-128-128.004c0 74.36 0 233.547 0 320.004l320.008-0.012-128.008-128h90.516l160 160-160 160z" />
<glyph unicode="&#xe668;" glyph-name="printer" d="M192 320v-320h640v320h-640zM768 64h-512v192h512v-192zM192 960v-384h640v384h-640zM768 640h-512v256h512v-256zM0 640v-512h256v64h-192v384h896v-384h-192v-64h256v512z" />
<glyph unicode="&#xe669;" glyph-name="pie-chart" d="M480 960c-265.094 0-480-214.906-480-480 0-265.098 214.902-480.004 480-480.004 265.094-0.004 480 214.902 480 480s-214.902 480.004-480 480.004zM480 64c-229.375 0-416 186.625-416 416 0 102.914 37.773 197.035 99.918 269.742l278.211-278.211 4.547-10.449 163.66-375.863c20.914 6.926 41.063 15.477 60.371 25.488l-127.016 291.711 273.34-165.297c12.781 17.684 24.172 36.355 34.090 55.961l-318.273 192.461 263.691 263.691c-14.191 16.66-29.676 32.141-46.289 46.383l-269.766-269.766-270.227 270.23c72.707 62.145 166.828 99.918 269.742 99.918 229.375 0 416-186.625 416-416s-186.625-416-416-416z" />
<glyph unicode="&#xe66a;" glyph-name="chart" d="M896 128v448h-192v-448h-64v640h-192v-640h-64v256h-192v-256h-64v704h-64v-768h896v64h-64zM320 128h-64v192h64v-192zM576 128h-64v576h64v-576zM832 128h-64v384h64v-384z" />
<glyph unicode="&#xe66b;" glyph-name="line-chart" d="M128 128v704h-64v-768h896v64zM832 896c-70.691 0-128-57.309-128-128 0-41.172 19.781-77.398 49.98-100.812l-94.77-221.125c-6.312 0.957-12.629 1.937-19.211 1.937-34.977 0-66.617-14.102-89.719-36.84l-108.055 64.828c3.391 11.496 5.773 23.418 5.773 36.012 0 70.691-57.309 128-128 128s-128-57.309-128-128 57.309-128 128-128c34.98 0 66.617 14.102 89.723 36.844l108.047-64.836c-3.387-11.492-5.77-23.414-5.77-36.008 0-70.691 57.309-128 128-128s128 57.309 128 128c0 41.172-19.781 77.398-49.98 100.812l94.77 221.125c6.312-0.957 12.629-1.937 19.211-1.937 70.691 0 128 57.309 128 128s-57.309 128-128 128zM320 448c-35.281 0-64 28.688-64 64s28.719 64 64 64 64-28.688 64-64-28.719-64-64-64zM640 256c-35.281 0-64 28.688-64 64s28.719 64 64 64 64-28.688 64-64-28.719-64-64-64zM832 704c-35.281 0-64 28.688-64 64s28.719 64 64 64 64-28.688 64-64-28.719-64-64-64z" />
<glyph unicode="&#xe66c;" glyph-name="question" d="M448 256h64v-64h-64v64zM483.125 768c-81.125 0-141.188-47.563-160.625-126.937-0.188-0.563-4.063-14.5-6.188-65.563l-0.312-6.625h54.312v6.375c0 15.25 0.625 21.5 2.625 43 7.875 57.375 50.5 94.5 108.563 94.5 64.375 0 104.437-36.5 104.437-95.25 0-40-14-59.312-47.312-90.063l-24.875-22.188c-62-47.188-61.375-97.188-60.75-155.063l0.188-30.187h55.25l-0.062 28.688c-0.375 64.75-0.438 84.25 57 130.437 50.375 42.563 75.937 75.812 75.937 139.125 0 102.875-82 149.75-158.188 149.75zM959.997 479.948c0.002 264.715-215.311 480.051-480 480.051s-480.005-215.338-480.007-480.053c-0.002-264.645 215.311-479.95 480-479.949s480.005 215.306 480.007 479.952zM63.99 479.934c0.002 229.438 186.629 416.064 416.006 416.065s416.002-186.624 416-416.062c-0.002-229.375-186.629-415.939-416.006-415.94s-416.002 186.562-416 415.937z" />
<glyph unicode="&#xe66d;" glyph-name="resend-invitation" d="M256 768h512v-64h-512v64zM320 640h384v-64h-384v64zM64 896h896v-384h64v448h-1024v-640h384v64h-320zM1024 224c0 159.059-128.937 288-288 288s-288-128.941-288-288c0-63.172 20.93-121.102 55.422-168.582l45.672 45.676c-23.312 35.336-37.094 77.504-37.094 122.906 0 123.5 100.5 224 224 224s224-100.5 224-224c0-88.926-52.648-164.688-128-200.59v168.59h-64v-256h256v64h-108.937c66.219 52.359 108.937 132.848 108.937 224z" />
<glyph unicode="&#xe66e;" glyph-name="rotate" d="M959.996 128.004h-155.262c95.129 87.68 155.262 212.68 155.262 351.945 0.004 264.715-215.309 480.051-480 480.051-264.688 0-480.004-215.34-480.008-480.055 0-151.789 71.031-287.094 181.383-375.105l35.969 52.895c-93.496 76.332-153.352 192.367-153.348 322.199 0 229.437 186.629 416.066 416.004 416.066s416-186.625 416-416.063c0-117.551-49.281-223.543-127.996-299.195v139.258h-64v-256l256 0.004-0.004 64zM448 512h64v-64h-64v64z" />
<glyph unicode="&#xe66f;" glyph-name="save" d="M885.5 896h-746.625c-41.312 0-74.688-33.312-74.688-74.559v-597.441c0-19.688 7.75-38.809 21.875-52.812l149.312-149.312c13.875-14.004 33.125-21.875 52.812-21.875h597.312c41.309 0 74.688 33.375 74.688 74.688v746.754c0 41.246-33.379 74.559-74.687 74.559zM256.187 832h512v-256h-512v256zM448.187 64h-64v128h64v-128zM768.187 64h-256v192h-192v-192h-32c-2.688 0-5.563 1.125-7.375 2.937l-32.383 32.383 7.758-6.887v227.566h512v-256zM896.187 74.688c0-6-4.688-10.688-10.688-10.688h-53.312v245.312c0 41.312-33.379 74.688-74.688 74.688h-490.625c-41.312 0-74.688-33.375-74.688-74.688v-153.75l-60.875 60.875c-2.062 2.063-3.125 4.75-3.125 7.563v597.437c0 5.938 4.688 10.563 10.688 10.563h53.312v-320h640v320h53.312c6 0 10.688-4.625 10.688-10.563v-746.75z" />
<glyph unicode="&#xe670;" glyph-name="settings" d="M513.5 691.301c-134.969 0-244.797-109.828-244.797-244.801s109.828-244.801 244.797-244.801 244.797 109.828 244.797 244.801-109.828 244.801-244.797 244.801zM513.5 249.688c-108.5 0-196.812 88.312-196.812 196.812s88.312 196.812 196.812 196.812 196.812-88.312 196.812-196.812-88.312-196.812-196.812-196.812zM905.531 487.633l109.195 74.789-28.477 87.645-132.258-3.652-46.625 64.074 44.359 124.691-74.539 54.125-104.844-80.648-75.359 24.445-37.422 126.898h-92.125l-37.422-126.898-75.359-24.445-104.844 80.648-74.539-54.125 44.359-124.691-46.625-64.074-132.258 3.652-28.477-87.645 109.133-74.789v-79.266l-109.133-74.789 28.477-87.645 132.258 3.656 46.625-64.078-44.359-124.695 74.539-54.121 104.844 80.648 75.359-24.445 37.422-126.898h92.125l37.422 126.898 75.359 24.445 104.844-80.648 74.539 54.121-44.359 124.695 46.625 64.078 132.258-3.656 28.477 87.645-109.195 74.789v79.266zM933.875 311.375l-111.812 3.063-86.312-118.563 37.5-105.437-88.625 68.25-139.5-45.375-31.625-107.25-31.625 107.25-139.5 45.375-88.625-68.25 37.5 105.437-86.312 118.563-111.812-3.063 92.25 63.25v146.75l-92.25 63.25 111.812-3.063 86.312 118.563-37.5 105.438 88.625-68.25 139.5 45.375 31.625 107.25 31.625-107.25 139.5-45.375 88.625 68.25-37.5-105.437 86.312-118.563 111.812 3.063-92.312-63.25v-146.75l92.313-63.25z" />
<glyph unicode="&#xe671;" glyph-name="settings2" d="M875.125 220l-15.5 26.937 10 92.25-41.688 24.129-74.875-54.816h-31.125l-74.871 54.816-41.691-24.129 9.996-92.25-15.559-26.938-84.875-37.441v-48.121l84.875-37.437 15.559-26.941-9.996-92.246 41.691-24.125 74.871 54.812h31.125l74.875-54.812 41.688 24.125-10 92.246 15.5 26.941 84.937 37.437v48.121l-84.937 37.441zM737.496 46.504c-61.828 0-112 50.16-112 112 0 61.828 50.172 112 112 112 61.84 0 112.004-50.172 112.004-112 0-61.84-50.164-112-112.004-112zM519.090 374.352c25.688 18.426 48.141 40.875 66.566 66.562l95.156-4.848 24.684 59.5-70.434 63.609c2.746 15.945 4.937 32.105 4.937 48.824 0 15.777-2.207 30.98-4.66 46.078l70.156 63.363-24.684 59.492-92.781-4.727c-18.777 26.902-42.164 50.188-68.797 69.324l4.703 92.281-59.504 24.691-61.125-67.695c-16.711 3.027-33.738 5.191-51.309 5.191-16.629 0-32.695-2.191-48.559-4.91l-60.883 67.414-59.492-24.691 4.582-89.902c-27.867-19.477-52.082-43.691-71.559-71.559l-89.965 4.582-24.629-59.492 67.414-60.883c-2.719-15.863-4.91-31.93-4.91-48.559 0-17.57 2.16-34.598 5.188-51.309l-67.691-61.125 24.629-59.5 92.34 4.703c19.133-26.637 42.422-50.016 69.328-68.797l-4.727-92.785 59.492-24.684 63.363 70.156c15.098-2.453 30.297-4.66 46.078-4.66 16.723 0 32.879 2.188 48.828 4.937l63.605-70.434 59.504 24.684-4.848 95.164zM353.496 452.875c-84.785 0-153.629 68.836-153.629 153.629 0 84.785 68.844 153.629 153.629 153.629 84.797 0 153.633-68.844 153.633-153.629 0-84.793-68.836-153.629-153.633-153.629z" />
<glyph unicode="&#xe672;" glyph-name="share" d="M958.5 576c0 24.418 0 10 0 64-52.312 0-202.188 0-254.5 0v-64h145.246l-282.637-282.645c0.004 0 0.004-0.008 0.008-0.008-16.363 10.844-34.801 18.762-54.617 23v471.664l128-128.004v90.512l-160 160-160-160v-90.512l128 128.004v-471.094c-20.953-4.063-40.426-12.184-57.609-23.57 0.004 0 0.004 0.008 0.008 0.008l-282.637 282.645h148.238v64c-223.586 0 0.32 0-255.996 0h-0.004c0-93.492 0-163.762 0-254.504h62.504v145.25l282.641-282.648c-16.762-25.289-26.641-55.535-26.641-88.098 0-88.258 71.742-160 160-160s160 71.742 160 160c0 32.563-9.879 62.809-26.641 88.098l284.137 282.648v-146.746h62.504v192h-0.004zM478.5 64c-52.937 0-96 43.063-96 96s43.063 96 96 96 96-43.063 96-96-43.063-96-96-96z" />
<glyph unicode="&#xe673;" glyph-name="sign-out" d="M171.992 512l128.008 128h-90.516l-160-160 160-160h90.508l-128 128h468.008v64zM960 960v-960h-512v384h64v-320h384v832h-384v-320h-64v384z" />
<glyph unicode="&#xe674;" glyph-name="support" d="M894.383 320c-15.586 204.156-178.262 366.871-382.383 382.457v65.543h64v64h-192v-64h64v-65.543c-204.121-15.586-366.797-178.301-382.383-382.457h-65.617v-192h960v192h-65.617zM480 640c183.262 0 334.133-140.891 350.379-320h-700.758c16.246 179.109 167.117 320 350.379 320zM896 192h-832v64h832v-64z" />
<glyph unicode="&#xe675;" glyph-name="user" d="M480.184 896.039c-123.906 0-224.184-100.242-224.184-224.039 0-123.641 100.277-224.031 224.184-224.031 123.461 0 223.816 100.391 223.816 224.031 0 123.797-100.355 224.039-223.816 224.039zM480.188 511.937c-88.312 0-160.188 71.813-160.188 160.063s71.875 160.063 160.188 160.063c88.125 0 159.812-71.813 159.812-160.063s-71.688-160.063-159.812-160.063zM480 384c-194.402 0-352-157.594-352-352 0-10.805 0.66-21.445 1.613-32h700.773c0.953 10.555 1.613 21.195 1.613 32 0 194.406-157.598 352-352 352zM193.75 64c16 143.812 138.25 256 286.25 256s270.25-112.188 286.25-256h-572.5z" />
<glyph unicode="&#xe676;" glyph-name="time-clock" d="M768 512h-256.039l0.039 320h-63.91l-0.051-384h319.961zM480.051 960c-264.715 0-480.051-215.312-480.051-480s215.336-480 480.051-480c264.645 0 479.949 215.312 479.949 480s-215.305 480-479.949 480zM512 65.617v62.383h-64v-62.449c-203.84 15.66-366.746 178.625-382.379 382.449h62.379v64h-62.379c16.445 214.434 195.809 384 414.441 384 229.375 0 415.937-186.625 415.937-416 0-218.594-169.539-397.969-384-414.383z" />
<glyph unicode="&#xe677;" glyph-name="trash" d="M640 832v64h-320v-64h-256v-64h832v64zM128 704l64-768h576l64 768h-704zM709.125 0h-458.25l-53.312 640h564.875l-53.313-640zM320 550.4c0 14.081 14.398 25.6 32 25.6s32-11.519 32-25.6v-460.8c0-14.081-14.398-25.6-32-25.6s-32 11.519-32 25.6v460.8zM448 550.4c0 14.081 14.398 25.6 32 25.6s32-11.519 32-25.6v-460.8c0-14.081-14.398-25.6-32-25.6s-32 11.519-32 25.6v460.8zM576 550.4c0 14.081 14.398 25.6 32 25.6s32-11.519 32-25.6v-460.8c0-14.081-14.398-25.6-32-25.6s-32 11.519-32 25.6v460.8z" />
<glyph unicode="&#xe678;" glyph-name="upload" d="M576-64h-64v453.488l-192-192v90.512l224 224 224-224v-90.512l-192 192zM871.031 686.383c-21.141 154.719-145.312 273.617-295.805 273.617-112.781 0-210.75-66.637-261.883-164.941-14.055 3.82-28.547 6.492-43.547 6.492-83.031 0-144.867-62.215-150.563-140.98-70.375-36.34-119.234-109.762-119.234-194.598 0-107.902 85.328-209.973 192-209.973 12.5 0 34.93 0 64 0v64h-64c-67 0-128 69.563-128 145.969 0 58 32.437 110.781 84.625 137.719l31.875 16.469 2.563 35.812c3.437 47.281 39.937 81.594 86.75 81.594 7.563 0 16.063-1.344 26.812-4.281l49.75-13.469 23.75 45.719c41.875 80.469 120.437 130.469 205.125 130.469 115.437 0 215.375-93.844 232.312-218.281l5.437-39.563 37.875-12.531c65.25-21.625 109.125-83.25 109.125-153.375 0-84.344-67.812-152.25-124-152.25h-4v-64c1.266 0 3.008 0 4.031 0 91.961 0 187.969 95.66 187.969 216.242 0 100.051-64.234 184.762-152.969 214.141z" />
<glyph unicode="&#xe679;" glyph-name="download" d="M576 512h-64v-403.383l-192 192v-90.512l224-224 224 224v90.512l-192-192zM871.031 686.383c-21.141 154.719-145.312 273.617-295.805 273.617-112.781 0-210.75-66.637-261.883-164.941-14.055 3.82-28.547 6.492-43.547 6.492-83.031 0-144.867-62.215-150.563-140.98-70.375-36.34-119.234-109.762-119.234-194.598 0-107.902 85.328-209.973 192-209.973 12.5 0 34.93 0 64 0v64h-64c-67 0-128 69.563-128 145.969 0 58 32.437 110.781 84.625 137.719l31.875 16.469 2.563 35.812c3.437 47.281 39.937 81.594 86.75 81.594 7.563 0 16.063-1.344 26.812-4.281l49.75-13.469 23.75 45.719c41.875 80.469 120.437 130.469 205.125 130.469 115.437 0 215.375-93.844 232.312-218.281l5.437-39.563 37.875-12.531c65.25-21.625 109.125-83.25 109.125-153.375 0-84.344-67.812-152.25-124-152.25h-4v-64c1.266 0 3.008 0 4.031 0 91.961 0 187.969 95.66 187.969 216.242 0 100.051-64.234 184.762-152.969 214.141z" />
<glyph unicode="&#xe67a;" glyph-name="zoom-in-magnifying-glass" d="M383.996 768h-64v-127.996h-127.996v-64h127.996v-128.004h64v128.004h128.004v64h-128.004zM352 960c-194.402 0-352-157.594-352-352 0-194.402 157.598-352 352-352s352 157.598 352 352c0 194.406-157.598 352-352 352zM352 320c-158.812 0-288 129.188-288 288s129.188 288 288 288 288-129.188 288-288-129.188-288-288-288zM554.035 362.033l45.259 45.253 383.971-384.023-45.259-45.253-383.971 384.023z" />
<glyph unicode="&#xe67b;" glyph-name="search" d="M983.289 23.289l-360.234 360.188c50.539 60.941 80.945 139.168 80.945 224.523 0 194.406-157.598 352-352 352s-352-157.594-352-352c0-194.402 157.598-352 352-352 86.004 0 164.719 30.93 225.859 82.16l360.172-360.125 45.258 45.254zM64 608c0 158.812 129.188 288 288 288s288-129.188 288-288-129.188-288-288-288-288 129.188-288 288z" />
<glyph unicode="&#xe67c;" glyph-name="zoom-out-magnifying-glass" d="M352 960c-194.402 0-352-157.594-352-352 0-194.402 157.598-352 352-352s352 157.598 352 352c0 194.406-157.598 352-352 352zM352 320c-158.812 0-288 129.188-288 288s129.188 288 288 288 288-129.188 288-288-129.188-288-288-288zM554.035 362.033l45.259 45.253 383.971-384.023-45.259-45.253-383.971 384.023zM192 640h320v-64h-320v64z" />
<glyph unicode="&#xe67d;" glyph-name="locked" d="M832 512h-640c-35.199 0-64-28.801-64-64v-448c0-35.199 28.801-64 64-64h640c35.199 0 64 28.801 64 64v448c0 35.199-28.801 64-64 64zM832 0h-640v448h640v-448zM384 640c0 70.563 57.406 128 128 128s128-57.437 128-128v-128h64v128c0 105.875-86.125 192-192 192s-192-86.125-192-192v-128h64v128zM256 640c0 140.801 115.199 256 256 256s256-115.199 256-256v-128h64v128c0 176.437-143.563 320-320 320s-320-143.563-320-320v-128h64v128zM576 256v64h-64v64h-64v-320h64v64h64v64h-64v64z" />
<glyph unicode="&#xe67e;" glyph-name="unlocked" d="M704 512h-640c-35.199 0-64-28.801-64-64v-448c0-35.199 28.801-64 64-64h640c35.199 0 64 28.801 64 64v448c0 35.199-28.801 64-64 64zM704 0h-640v448h640v-448zM768 960c-141.375 0-255.969-114.625-255.969-256l-0.031-192h64v192c0 105.996 85.937 192 191.969 192 106.035 0 192-86.004 192-192h0.031v-64h-64v64c0 70.688-57.312 128-128 128s-128-57.312-128-128v-192h64v192c0 35.316 28.66 64 64 64s64.031-28.684 64.031-64v-128h191.969v128c0 141.375-114.625 256-256 256zM448 256v64h-64v64h-64v-320h64v64h64v64h-64v64z" />
<glyph unicode="&#xe67f;" glyph-name="favorites" d="M1024 576c-142.359 0-254.969 0-389.996 0l-120.629 372.25-120.691-372.25c-82.629 0-309.785 0-392.684 0l318.125-229.5-121.191-372 316.441 230.184 316.371-230.184-121.246 372 315.5 229.5zM513.375 283.812l-194.437-141.437 74.5 228.688-195.313 140.937h241.063l74.188 228.688 74.062-228.688h239.812l-194-141.125 74.437-228.437-194.312 141.375z" />
<glyph unicode="&#xe680;" glyph-name="compass" d="M512 960l-192-512 192-512 192 512zM396.8 384h230.4l-115.2-332.8z" />
<glyph unicode="&#xe681;" glyph-name="down" d="M941.543 640h-90.504l-371.039-371.055-371.039 371.055h-90.504l461.543-461.543z" />
<glyph unicode="&#xe682;" glyph-name="up" d="M82.462 255.979h90.504l371.039 371.054 371.039-371.055h90.504l-461.542 461.543z" />
<glyph unicode="&#xe683;" glyph-name="chat" d="M1024 352c0 128.723-106.539 237.656-261.32 274.551 3.195 14.84 5.32 29.945 5.32 45.449 0 159.059-174.609 288-390 288s-378-128.941-378-288c0-78.934 40.121-150.398 106.789-202.422l-106.789-213.578 209.766 157.324c16.465-6.098 33.867-10.992 51.672-15.297-3.277-15.023-5.437-30.32-5.437-46.027 0-159.059 174.609-288 390-288 61.273 0 118.031 10.73 168.234 29.324l209.766-157.324-106.789 213.578c66.668 52.023 106.789 123.488 106.789 202.422zM64 672c0 123.711 143.27 224 320 224s320-100.289 320-224-143.27-224-320-224-320 100.289-320 224zM640 128c-176.73 0-320 100.289-320 224 0 12.305 2.445 24.152 5.172 35.918 17.305-1.945 34.609-3.918 52.828-3.918 163.488 0 302.195 74.766 360.145 180.137 128.391-29.137 221.855-112.555 221.855-212.137 0-123.711-143.27-224-320-224z" />
<glyph unicode="&#xe684;" glyph-name="dock-bottom" d="M64 832v-768h896v768h-896zM896 128h-768v128h768v-128zM896 320h-768v448h768v-448z" />
<glyph unicode="&#xe685;" glyph-name="dock-left" d="M64 832v-768h896v768h-896zM256 128h-128v640h128v-640zM896 128h-576v640h576v-640z" />
<glyph unicode="&#xe686;" glyph-name="dock-right" d="M64 832v-768h896v768h-896zM704 128h-576v640h576v-640zM896 128h-128v640h128v-640z" />
<glyph unicode="&#xe687;" glyph-name="organization" d="M960 64v768h-384v64h-384v-64h-128v-768h-64v-64h448v192h128v-192h448v64h-64zM896 64h-256v192h-256v-192h-256v704h128v64h256v-64h384v-704zM192 448h128v-128h-128v128zM192 704h128v-128h-128v128zM448 448h128v-128h-128v128zM448 704h128v-128h-128v128zM704 448h128v-128h-128v128zM704 704h128v-128h-128v128z" />
<glyph unicode="&#xe688;" glyph-name="north-navigation" d="M526.912 960l-384-1022.080 384 254.080 384-254.080zM526.912 256c-13.135-0.010-25.342-3.976-35.496-10.77l0.232 0.146-219.392-145.152 254.656 677.76 254.592-677.76-219.264 145.152c-9.936 6.657-22.161 10.624-35.313 10.624-0.005 0-0.011 0-0.016 0h0.001z" />
<glyph unicode="&#xe689;" glyph-name="locate-circled" d="M480 832l-224-576 224 128 224-128-224 576zM381.156 401.25l98.844 254.188 98.844-254.188-98.844 56.438-98.844-56.438zM480.051 960c-264.715 0-480.051-215.312-480.051-480s215.336-480 480.051-480c264.645 0 479.949 215.312 479.949 480s-215.305 480-479.949 480zM480.063 64c-229.438 0-416.063 186.625-416.063 416s186.625 416 416.063 416c229.375 0 415.937-186.625 415.937-416s-186.563-416-415.937-416z" />
<glyph unicode="&#xe68a;" glyph-name="dial" d="M819.452 819.375c-187.188 187.184-491.703 187.199-678.859 0.035-187.164-187.16-187.148-491.676 0.031-678.855 187.133-187.133 491.625-187.129 678.789 0.035 187.164 187.16 187.164 491.652 0.039 678.785zM774.155 185.844c-162.188-162.191-426.078-162.238-588.266-0.043-162.234 162.234-162.234 426.164-0.047 588.355 72.891 72.887 166.328 112.723 261.844 120.098v-382.254h64v382.281c95.734-7.254 189.445-47.102 262.516-120.168 162.188-162.195 162.148-426.078-0.047-588.27z" />
<glyph unicode="&#xe68b;" glyph-name="polygon" d="M448 512l-320 192v-704h768v896l-448-384zM832 64h-640v526.937l262.625-157.563 377.375 323.5v-692.875z" />
<glyph unicode="&#xe68c;" glyph-name="polyline" d="M832 768v-177.262l-127.23-206.738h-105.965l-150.805 135.723v120.277h-192v-171.922l-136.348-212.078h-119.652v-192h192v192h-19.082l123.414 192h151.668v11.484l128-115.203v-152.281h192v192h-10.621l118.152 192h148.469v192h-192zM128 128h-64v64h64v-64zM384 512h-64v64h64v-64zM704 256h-64v64h64v-64zM960 640h-64v64h64v-64z" />
<glyph unicode="&#xe68d;" glyph-name="visible" d="M512 128.063c-272.5 0-486.563 288.812-495.5 301.125l-13.812 18.875 13.812 18.875c8.937 12.312 223 301.125 495.5 301.125s486.563-288.812 495.5-301.125l13.812-18.875-13.812-18.875c-8.937-12.312-223-301.125-495.5-301.125zM83.063 448.063c51-62.063 226.5-256 428.937-256 202.875 0 378 193.875 428.937 256-51 62.063-226.5 256-428.937 256-202.875 0-378-193.875-428.937-256zM512 627.264c-98.969 0-179.2-80.231-179.2-179.2s80.231-179.2 179.2-179.2 179.2 80.231 179.2 179.2-80.231 179.2-179.2 179.2z" />
<glyph unicode="&#xe68e;" glyph-name="non-visible" d="M1007.5 466.937c-7.203 9.926-147.781 199.32-344.719 272.477l54.008 92.586h-51.188l-46.043-78.926c-34.57 9.281-70.453 14.988-107.559 14.988-272.5 0-486.563-288.812-495.5-301.125l-13.812-18.875 13.812-18.875c6.305-8.688 114.988-154.746 274.031-240.16l-72.93-125.027h51.188l61.531 105.48c56.043-24.898 117.133-41.418 181.68-41.418 272.5 0 486.563 288.812 495.5 301.125l13.812 18.875-13.812 18.875zM83.063 448.063c50.937 62.125 226.063 256 428.937 256 25.172 0 49.926-3.016 74.078-8.387l-42.055-72.094c-10.391 2.145-20.98 3.684-32.023 3.684-98.969 0-179.199-80.23-179.199-179.199 0-43.645 16.402-82.902 42.379-113.93l-52.27-89.605c-116.051 62.035-205.789 162.086-239.848 203.531zM512 192.063c-52.094 0-102.336 12.969-149.199 33.102l267.059 457.812c149.973-51.758 270.324-185.32 311.078-234.914-50.937-62.125-226.062-256-428.937-256zM643.707 568.73c29.223-31.887 47.492-74.004 47.492-120.664 0-98.973-80.23-179.203-179.199-179.203-13.922 0-27.32 1.945-40.328 4.949l172.035 294.918z" />
<glyph unicode="&#xe68f;" glyph-name="link-vertical" d="M320 672c0 88.219 71.75 160 160 160s160-71.781 160-160c0-52.066-25.371-97.961-64-127.195v-74.422c75.469 36.031 128 112.414 128 201.617 0 123.711-100.289 224-224 224s-224-100.289-224-224c0-89.203 52.531-165.586 128-201.617v74.422c-38.629 29.234-64 75.129-64 127.195zM576 425.617v-74.422c38.629-29.234 64-75.129 64-127.195 0-88.219-71.75-160-160-160s-160 71.781-160 160c0 52.066 25.371 97.961 64 127.195v74.422c-75.469-36.031-128-112.414-128-201.617 0-123.711 100.289-224 224-224s224 100.289 224 224c0 89.203-52.531 165.586-128 201.617zM448 704h64v-512h-64v512z" />
<glyph unicode="&#xe690;" glyph-name="unlocked-link-vertical" d="M768 512v41.6l150.4 150.4h41.6v-41.6l-150.4-150.4zM918.4 128l-150.4 150.4v41.6h41.6l150.4-150.4v-41.6zM0 128v41.6l150.4 150.4h41.6v-41.6l-150.4-150.4zM150.4 512l-150.4 150.4v41.6h41.6l150.4-150.4v-41.6zM0 448h192v-64h-192v64zM768 448h192v-64h-192v64zM320 672c0 88.219 71.75 160 160 160s160-71.781 160-160c0-52.066-25.371-97.961-64-127.195v-74.422c75.469 36.031 128 112.414 128 201.617 0 123.711-100.289 224-224 224s-224-100.289-224-224c0-89.203 52.531-165.586 128-201.617v74.422c-38.629 29.234-64 75.129-64 127.195zM576 425.617v-74.422c38.629-29.234 64-75.129 64-127.195 0-88.219-71.75-160-160-160s-160 71.781-160 160c0 52.066 25.371 97.961 64 127.195v74.422c-75.469-36.031-128-112.414-128-201.617 0-123.711 100.289-224 224-224s224 100.289 224 224c0 89.203-52.531 165.586-128 201.617z" />
<glyph unicode="&#xe691;" glyph-name="link-horizontal" d="M256.001 319.998c-88.219 0-160.001 71.75-160.001 160s71.782 160 160.001 160.001c52.067 0 97.962-25.371 127.196-64h74.422c-36.031 75.469-112.415 128-201.619 127.999-123.712 0-224.001-100.29-224.001-224.001s100.29-224 224.002-223.999c89.204 0 165.587 52.532 201.619 128.001h-74.422c-29.235-38.629-75.129-64-127.196-64zM502.386 575.999h74.422c29.235 38.629 75.129 64 127.196 64 88.219 0 160.001-71.75 160.001-160s-71.782-160-160.001-160.001c-52.067 0-97.962 25.371-127.196 64h-74.422c36.032-75.469 112.415-128 201.619-127.999 123.712 0 224.002 100.29 224.001 224.001s-100.29 224-224.002 223.999c-89.204 0-165.587-52.532-201.619-128.001zM224.001 447.999v64h512.003v-64h-512.003z" />
<glyph unicode="&#xe692;" glyph-name="unlocked-link-horizontal" d="M384 768h-41.6l-150.4 150.4v41.6h41.6l150.4-150.4zM768 918.4l-150.4-150.4h-41.6v41.6l150.4 150.4h41.6zM768 0h-41.6l-150.4 150.4v41.6h41.6l150.4-150.4zM384 150.4l-150.4-150.4h-41.6v41.6l150.4 150.4h41.6zM448 192h64v-192h-64v192zM448 960h64v-192h-64v192zM224 320c-88.219 0-160 71.75-160 160s71.781 160 160 160c52.066 0 97.961-25.371 127.195-64h74.422c-36.031 75.469-112.414 128-201.617 128-123.711 0-224-100.289-224-224s100.289-224 224-224c89.203 0 165.586 52.531 201.617 128h-74.422c-29.234-38.629-75.129-64-127.195-64zM470.383 576h74.422c29.234 38.629 75.129 64 127.195 64 88.219 0 160-71.75 160-160s-71.781-160-160-160c-52.066 0-97.961 25.371-127.195 64h-74.422c36.031-75.469 112.414-128 201.617-128 123.711 0 224 100.289 224 224s-100.289 224-224 224c-89.203 0-165.586-52.531-201.617-128z" />
<glyph unicode="&#xe693;" glyph-name="swap" d="M896 640v64h-659.383l192 192h-90.512l-224-224 224-224h90.512l-192 192zM910.519 224l-224 224h-90.512l192.004-192h-660.012v-64h660.012l-192.004-192h90.512z" />
<glyph unicode="&#xe694;" glyph-name="cta-link-external" d="M685.441 704h-90.5l192-192h-658.941v-64h658.941l-192-192h90.5l224 224z" />
<glyph unicode="&#xe695;" glyph-name="reply" d="M685.441 640c-15.047 0-70.112 0-90.5 0l192-192c-230.425 0-173.71 0-402.941 0-70.594 0-128 57.437-128 128v128h-64v-128c0-105.602 86.398-192 192-192 150.082 0 248.010 0 402.941 0l-192-192c25.994 0 64.161 0 90.5 0l224 224-224 224z" />
<glyph unicode="&#xe696;" glyph-name="public" d="M480.051 960c-264.715 0-480.051-215.312-480.051-480s215.336-480 480.051-480c264.645 0 479.949 215.312 479.949 480s-215.305 480-479.949 480zM278.273 842.852c16.809 1.582 31.52 0.57 32.227-4.945 1.434-11.937 1.434-43.148 11.844-37.199 8.895 4.484 19.367 29.777 43.18 11.879 23.75-17.828-4.512-40.137-11.906-52.051-7.457-11.973-10.465-31.242-35.727-22.312-25.316 8.934-29.766-2.973-31.273-11.902-1.5-8.934-17.797-16.363-38.668-10.441-20.875 5.957-54.957-26.691-71.387-43.113-7.086-7.055-51.547-21.289-65.031-4.18 37.625 73.090 94.996 134.281 166.742 174.266zM197.402 175.762c-81.859 75.949-133.402 184.039-133.402 304.238 0 19.223 1.953 37.957 4.496 56.488 21.145-6.793 49.895-18.574 55.988-45.227 8.895-13.379 26.691-55.059 44.621-77.371 28.723-35.953 9.031-53.359 11.906-81.855 14.852-7.422 37.164-23.781 59.477-35.758 22.309-11.871 38.738-43.113 4.516-55.023-7.457-5.953 1.437-34.254-13.414-40.176-9.574-3.82-21.859-16.391-34.188-25.316zM557.344 71.48c-25.074-4.734-50.848-7.48-77.281-7.48-92.77 0-178.246 30.883-247.512 82.395 2.398 1.898 4.375 3.293 7.199 5.668 3.75 3.156 7.25 6.406 8.437 7.406 27 10.781 34.5 35.094 36.937 53.406 14.125 11.531 22.75 27.312 24.125 45.281 2.688 34.688-22 64-47.563 77.594-10.437 5.594-20.812 12.25-30.25 18.312-1.125 0.688-2.188 1.375-3.312 2.062 3.125 19.938 4.625 49.875-24.062 85.812-8.688 10.781-19.375 31.594-27.188 46.781-4.063 7.906-7.75 14.969-10.938 20.5-15.594 47.461-65.184 64.348-88.301 71.41 4.016 15.977 8.727 31.57 14.539 46.754 9.539-6.375 21.801-12.039 40.887-12.039 24.25 0 59 9.594 75.188 25.719 21.125 21.156 31.937 28.094 34.187 30.031 27.602-5.75 57.598 0.223 75.625 20.969 43.273-6.98 54.914 16.344 76.5 48.281 6.664 8.063 16.824 21.156 21.836 37.762-2.164-28.809 29.098-21.605 51.004-5.656 16.355 11.871 35-0.758 48.414 0 13.348 0.715 16.293 17.859 22.313 26.758 5.953 8.965 31.93 20.836 19.301 33.469-12.688 12.629-73.672 21.559-89.242 1.5-7.988-10.305-32.785-38.734-45.414-44.621-2.328-1.090-3.395-3.191-4.52-5.207 1.195 6.082 1.758 12.527 0.934 19.465-1.012 8.613-4.48 19.91-13.055 30.957 19.109 5.434 16.98 25.945 13.699 36.605-3.73 11.91-23.094 11.91-29.051 9.652-5.957-2.223-16.355-9.652-16.355-9.652 0.473-3.047 0.703-8.246 1.277-13.789-8.488 3.676-17.133 6.133-26.016 6.133-0.75 0-1.437 0-2.125-0.031-2.105 3.273-5.281 4.957-7.953 7.398 43.953 15.836 91.105 24.914 140.453 24.914 68.223 0 132.48-16.82 189.348-46.055-8.691-9.121-16-19.547-19.598-34.727-30.625-3.969-57.875-25.844-68.188-53.188-20.16-21.773-21.797-41.453-18.266-56.172 4.039-3.937 7.672-9.316 11.215-11.566 18.648-11.914 17.074-33.5 2.227-37.23-9.926-2.516-14.309 4.77-16.293 13.113-13.012-6.477-23.301-17.48-27.57-31.832-12.5-3.25-24.063-10.281-33-20.312-13.625-15.312-20.062-35.969-17.625-56.75 1.063-9.281 3.438-17.906 6.937-25.688-9.25-6.75-17.687-14.844-24.062-23.937-21.938-11.937-52.812-34.094-64.563-68.375-5.312-11-8.437-24.812-8.875-38.25-6.5-9.625-14-23.437-16.312-40.281-4.75-35.094 17.437-57.906 33.937-70.344 19.875-46.219 48.75-69.656 87.375-69.656 14.312 0.312 27.375 2.125 39.625 3.937 8 1.156 15.437 2.437 22.75 2.437 0.812 0 1.563 0 2.25-0.063-6.75-18.656-3.625-33.25 1.75-43.531-27.328-29.965-18.297-85.535-5.781-116.051zM798.477 443.598c3.727-13.352 20.805-64.715 26.035-79.594 21.594-4.484 24.535-6.707 31.277-13.414 6.613-6.672-1.504-15.637-13.414-32.684-11.906-17.145-54.305-95.266-56.527-109.363-0.426-2.758-0.516-6.246-0.512-10.137-49.375-53.504-112.887-92.969-184.137-114.844-11.125 22.141-15.945 63.531-4.379 74.367 11.844 11.191 17.078 40.176 8.18 47.633-8.895 7.395 6.016 20.121 7.457 28.234 8.242 30.559-8.18 31.992-33.434 39.488-25.324 7.391-50.578-3.016-83.293-3.766-32.844-0.719-46.191 46.164-49.922 54.277-11.844 7.457-28.199 18.68-25.977 35 2.227 16.422 17.078 30.492 17.797 33.5-2.941 9.688 0 27.484 4.516 33.465 7.395 28.27 43.836 46.855 55.809 52.121 4.449 19.336 42.398 37.914 51.297 34.148 8.898-3.691 17.145-17.828 31.273 0 14.070 17.898 23.035 12.664 44.625 12.664 21.527 0 28.199-10.437 34.941-30.492 6.672-20.086 53.586-23.027 54.309-18.609 9.613 31.957 36.441 7.453 41.672 7.453 31.277 2.191 34.941 15.605 31.277 34.227-3.727 18.578-35 8.93-38.734 17.070-2.871 6.418-9.68 20.844-13.41 13.414-3.668-7.426-16.289-23.063-24.539-2.191-8.18 20.812-31.207 44.594-37.164 40.895-8.965-12.695-20.152-12.629-25.32-8.93-20.801 15.637-36.379-0.785-45.402-9.688-8.898-8.93-22.379-23.652-41.75-28.918-19.301-5.164-31.992 8.215-34.215 27.543-2.227 19.371 14.98 35.566 32.125 26.699 17.141-8.93 31.926-1.508 24.535 5.926-7.395 7.457-12.629 28.293-2.949 31.957 9.621 3.734 16.363 0 32.719 22.344 16.363 22.312 34.937 14.891 56.535 11.156 21.586-3.73 15.637 31.992 14.129 38.699s-27.543 21.563-29.77 16.395c-2.164-5.203 3.727-29.016-8.895-35.008-12.699-5.98-25.328 14.199-35.734 26.078-10.465 11.871 9.691 23.027 11.914 29.016 5.957 21.563 30.551 39.426 53.586 27.477 23.027-11.938 27.477-2.973 26.043 0.793-11.98 14.129-11.582 39.617 0 52.043 2.945 3.176 5.609 4.617 8.375 6.664 106.539-70.738 178.020-189.328 185.172-324.766-6.836 0.906-13.625 2.047-18.785 3.383-14.070 3.77-24.539-11.121-17.859-16.352 6.672-5.168 22.371-11.090 23.812-20.805 1.504-9.688-14.855-53.559-23.812-69.883-8.906-16.422-19.305-17.859-24.543-10.469-5.168 7.461-14.848 43.871-26.035 64.738-11.191 20.812-12.633 4.484-8.898-8.957z" />
<glyph unicode="&#xe697;" glyph-name="share2" d="M896 448v-384h-768v768h512v64h-576v-896h896v448zM768 422.445l249.563 249.57-249.563 249.57v-90.484l127.062-127.086h-191.062c-140.801 0-256-115.199-256-256v-128h64v128c0 105.875 86.125 192 192 192v-0.016l191.063 0.016-127.063-127.086v-90.484z" />
<glyph unicode="&#xe698;" glyph-name="launch-link-external" d="M640 896v-64h210.746l-425.375-425.371 45.258-45.258 425.371 425.375v-210.746h64v320zM896 448v-384h-768v768h384v64h-448v-896h896v448z" />
<glyph unicode="&#xe699;" glyph-name="rotate-back" d="M511.994 384.006v64h64v-64h-64zM544.047 886.398c-178.25 0-333.172-99.863-412.875-246.398h-3.172v256h-64v-320h320v64h-200.781c75.164 120.695 208.453 201.594 360.844 201.594 234.656 0 425.531-190.906 425.531-425.594s-190.875-425.594-425.531-425.594c-223.914 0-407.563 173.852-424.031 393.594h-44.812c16.578-244.461 220.211-438.398 468.828-438.398 259.359 0 470.352 211.004 470.352 470.398s-210.992 470.398-470.352 470.398z" />
<glyph unicode="&#xe69a;" glyph-name="pan2" d="M384 448v64h-297.688l115.188 115.188h-54.312l-147.188-147.188 147.188-147.188h54.312l-115.188 115.188zM448 576h64v297.688l115.188-115.188v54.312l-147.188 147.188-147.188-147.188v-54.312l115.188 115.188zM512 384h-64v-297.688l-115.188 115.188v-54.312l147.188-147.188 147.188 147.188v54.312l-115.188-115.188zM812.812 627.188h-54.312l115.188-115.188h-297.688v-64h297.688l-115.188-115.188h54.312l147.188 147.188z" />
<glyph unicode="&#xe69b;" glyph-name="tracking" d="M728.902 728.902l-565.685-248.902 248.902-67.882 67.882-248.901 248.902 565.685zM354.422 494.209l249.631 109.845-109.845-249.631-29.986 109.8-109.8 29.986zM819.447 819.375c-187.182 187.182-491.696 187.198-678.858 0.036s-187.146-491.677 0.036-678.858c187.132-187.132 491.624-187.126 678.786 0.036s187.168 491.655 0.036 678.786zM185.888 185.8c-162.237 162.237-162.237 426.164-0.044 588.357s426.12 162.193 588.357-0.044c162.193-162.193 162.148-426.076-0.044-588.268s-426.076-162.237-588.268-0.044z" />
<glyph unicode="&#xe69c;" glyph-name="expand2" d="M320 0h-210.695l338.695 338.746-45.254 45.254-338.699-338.746 0.004 210.746h-60.781l-3.219-3.219v-316.781h316.781l3.168 3.168zM703.996 895.999l210.694-0.001-338.691-338.745 45.254-45.254 338.695 338.745-0.003-210.746h60.781l3.219 3.219-0.002 316.781-316.779 0.001-3.168-3.168z" />
<glyph unicode="&#xe69d;" glyph-name="arrow-down" d="M18.46 447.971l461.543-461.542 461.538 461.541h-90.503l-339.035-338.428-0.005 850.428h-63.375l0.005-851.678-339.664 339.679z" />
<glyph unicode="&#xe69e;" glyph-name="arrow-up" d="M941.543 448l-461.543 461.543-461.543-461.543h90.504l339.039 338.43v-850.43h63.375v851.68l339.664-339.68z" />
<glyph unicode="&#xe69f;" glyph-name="hollow-eye" d="M1002.328 466.742c-8.844 12.184-220.672 297.984-490.328 297.984s-481.484-285.801-490.328-297.984l-13.672-18.68 13.672-18.68c8.844-12.184 220.672-297.984 490.328-297.984s481.484 285.801 490.328 297.984l13.672 18.68-13.672 18.68zM512 180.949c-213.422 0-395.078 202.063-448 267.113 53.258 65.449 234.766 267.113 448 267.113 213.422 0 395.078-202.063 448-267.113-53.258-65.449-234.766-267.113-448-267.113zM512 627.266c-98.969 0-179.203-80.23-179.203-179.203 0-98.969 80.234-179.199 179.203-179.199s179.203 80.23 179.203 179.199c0 98.973-80.234 179.203-179.203 179.203zM512 320.063c-70.586 0-128.031 57.414-128.031 128s57.445 128 128.031 128 128.031-57.414 128.031-128-57.445-128-128.031-128z" />
<glyph unicode="&#xe6a0;" glyph-name="play-circled" d="M480.051 960c-264.715 0-480.051-215.312-480.051-480s215.336-480 480.051-480c264.645 0 479.949 215.312 479.949 480s-215.305 480-479.949 480zM480.063 64c-229.438 0-416.063 186.625-416.063 416s186.625 416 416.063 416c229.375 0 415.937-186.625 415.937-416s-186.563-416-415.937-416zM384 256l320 224-320 224v-448zM448 581.063l144.375-101.063-144.375-101.063v202.125z" />
<glyph unicode="&#xe6a1;" glyph-name="volume-off" d="M0 640v-320h189.633l258.367-192v704l-258.367-192h-189.633zM384 704.688v-449.375l-173.188 128.688h-146.812v192h146.812l173.188 128.688zM781.266 480.020l135.766-135.77-45.25-45.254-135.77 135.766-135.766-135.766-45.258 45.254 135.77 135.77-135.738 135.738 45.258 45.258 135.734-135.742 135.762 135.762 45.258-45.254-135.766-135.762z" />
<glyph unicode="&#xe6a2;" glyph-name="volume-on" d="M579.293 611.719c37.336-44.484 60.707-101.094 60.707-163.719s-23.371-119.234-60.711-163.723l-41.922 41.922c26.766 33.621 43.445 75.598 43.445 121.801 0 46.199-16.676 88.176-43.441 121.797l41.922 41.922zM189.633 640l258.367 192v-704l-258.367 192h-189.633v320h189.633zM210.812 576h-146.812v-192h146.812l173.188-128.688v449.375l-173.188-128.688zM715.676 748.098l-41.84-41.84c61.332-68.754 98.965-159.082 98.965-258.258 0-99.18-37.633-189.512-98.969-258.266l41.836-41.836c72.027 79.527 116.332 184.605 116.332 300.102s-44.297 220.574-116.324 300.098zM851.379 883.801l-41.84-41.84c96.027-103.648 155.262-241.848 155.262-393.961 0-152.117-59.234-290.32-155.266-393.969l41.836-41.836c106.734 114.391 172.629 267.371 172.629 435.805 0 168.43-65.891 321.41-172.621 435.801z" />
<glyph unicode="&#xe900;" glyph-name="bookmark" d="M832-27.84l-320 213.44-320-213.376v987.776h640zM512 262.464l256-170.624v804.16h-512v-804.16z" />
<glyph unicode="&#xe901;" glyph-name="lightbulb" d="M581.312 192l-208.896 2.816c-25.318 14.769-42.961 40.321-46.673 70.195l-0.047 0.461c-3.356 15.353-5.65 33.314-6.381 51.678l-0.019 0.61c-0.572 20.79-3.666 40.613-8.988 59.503l0.412-1.711c-7.836 16.051-16.923 29.885-27.509 42.41l0.245-0.298c-52.724 61.938-87.271 140.813-94.556 227.446l-0.1 1.482c-0.355 5.388-0.557 11.681-0.557 18.021 0 90.243 40.987 170.913 105.36 224.41l0.477 0.385c49.812 42.393 114.896 68.18 186.002 68.18 73.713 0 140.954-27.712 191.873-73.286l-0.275 0.242c61.466-53.894 100.063-132.576 100.063-220.273 0-6.265-0.197-12.484-0.585-18.651l0.042 0.844c-7.413-88.068-41.955-166.896-95.132-229.373l0.476 0.573c-10.322-12.214-19.407-26.025-26.733-40.859l-0.531-1.189c-4.906-17.197-7.999-37.042-8.569-57.518l-0.007-0.338c-0.75-18.974-3.044-36.935-6.772-54.365l0.372 2.077c-3.759-30.336-21.402-55.888-46.272-70.414l-0.448-0.242zM397.44 256h165.44c4.088 6.721 7.198 14.549 8.881 22.893l0.079 0.467c2.693 12.455 4.487 26.979 4.981 41.832l0.011 0.408c0.809 25.806 4.729 50.355 11.399 73.745l-0.519-2.129c9.384 24.116 22.054 44.889 37.73 62.986l-0.226-0.266c45.384 52.431 75.302 119.376 82.013 193.027l0.099 1.341c0.264 4.114 0.414 8.921 0.414 13.763 0 68.684-30.256 130.301-78.166 172.25l-0.264 0.227c-39.46 35.317-91.849 56.907-149.282 56.907-55.374 0-106.060-20.070-145.182-53.332l0.319 0.265c-50.808-42.212-82.919-105.412-82.919-176.111 0-4.892 0.154-9.748 0.457-14.563l-0.033 0.659c6.795-75.015 36.716-141.985 82.48-194.866l-0.368 0.434c15.441-17.846 28.092-38.643 36.945-61.341l0.495-1.443c6.174-21.237 10.116-45.76 10.932-71.074l0.012-0.478c0.505-15.261 2.299-29.785 5.281-43.869l-0.289 1.629c1.678-8.831 4.914-16.678 9.433-23.611l-0.153 0.251zM622.272 160l10.24 34.304c1.266 4.1 1.995 8.813 1.995 13.696 0 26.51-21.49 48-48 48-0.004 0-0.008 0-0.012 0h-74.495v192h-64v-192h-74.496c-26.504-0.008-47.986-21.495-47.986-48 0-4.93 0.743-9.687 2.124-14.164l-0.090 0.34 10.24-34.176-23.36-77.76 95.168-61.888c19.856-13.051 44.196-20.818 70.351-20.818 26.196 0 50.572 7.791 70.937 21.183l-0.488-0.301 95.168 61.824zM515.648 74.112c-10.080-6.509-22.396-10.378-35.616-10.378s-25.536 3.869-35.878 10.536l0.262-0.158-54.848 35.648 15.040 50.24-9.6 32h169.984l-9.6-32 15.040-50.24zM384 576h192v-64h-192z" />
<glyph unicode="&#xe902;" glyph-name="sketch-rectangle" d="M640 64h-640v832h960v-512h-64v448h-832v-704h576v-64zM832 512h-128v-192h-192v-128h192v-192h128v192h192v128h-192v192z" />
<glyph unicode="&#xe903;" glyph-name="north-navigation-filled" d="M142.912-62.080l384 1022.080 384-1022.080-384 254.080z" />
<glyph unicode="&#xe904;" glyph-name="default-action" d="M0 960h1024v-1024h-1024v1024zM73.143 886.857v-877.714h877.714v877.714h-877.714zM292.571 667.429h438.857v-438.857h-438.857z" />
<glyph unicode="&#xe905;" glyph-name="undo" d="M387.328 865.344l-161.408-161.344h574.080c52.99-0.073 95.927-43.010 96-95.993v-384.007c-0.073-52.99-43.010-95.927-95.993-96h-544.007v64h544c17.673 0 32 14.327 32 32v0 384c0 17.673-14.327 32-32 32v0h-574.080l161.408-161.344-45.248-45.248-238.656 238.592 238.656 238.656z" />
<glyph unicode="&#xe906;" glyph-name="redo" d="M681.92 910.656l238.656-238.656-238.656-238.656-45.248 45.248 161.408 161.408h-574.080c-17.673 0-32-14.327-32-32v0-384c0-17.673 14.327-32 32-32v0h544v-64h-544c-52.99 0.073-95.927 43.010-96 95.993v384.007c0.073 52.99 43.010 95.927 95.993 96h574.087l-161.408 161.344z" />
<glyph unicode="&#xe907;" glyph-name="cursor" d="M311.040-51.84l-294.4 995.2 995.84-295.040c6.201-2.298 10.541-8.162 10.541-15.040s-4.34-12.742-10.431-15.004l-0.111-0.036-339.2-142.080 286.72-284.16-192-192-284.16 285.44-142.080-339.2c-2.762-5.589-8.423-9.365-14.965-9.365-7.273 0-13.456 4.666-15.719 11.168l-0.035 0.117zM461.44 396.16l306.56-304 99.84 99.84-305.92 306.56 302.72 128-753.28 222.080 223.36-753.28z" />
<glyph unicode="&#xe908;" glyph-name="cursor-filled" d="M307.584-3.584l-275.584 931.584 932.224-276.16c1.56 0.603 3.366 0.952 5.253 0.952 8.271 0 14.976-6.705 14.976-14.976s-6.705-14.976-14.976-14.976c-1.839 0-3.601 0.332-5.229 0.938l0.104-0.034-0.128-0.064-317.568-132.992 268.416-266.048-179.712-179.712-266.048 267.2-132.992-317.504c-2.607-5.2-7.896-8.707-14.004-8.707-6.768 0-12.53 4.305-14.697 10.326l-0.034 0.109v0.064z" />
<glyph unicode="&#xe909;" glyph-name="measure-line" d="M0 64h960v384h-960zM64 384h832v-256h-64v192h-64v-192h-64v128h-64v-128h-64v192h-64v-192h-64v128h-64v-128h-64v192h-64v-192h-64v128h-64v-128h-64zM768 704v-64h-576v64h-192v-192h192v64h576v-64h192v192zM128 576h-64v64h64zM896 576h-64v64h64z" />
<glyph unicode="&#xe90a;" glyph-name="measure" d="M0 384v-384h1024v384zM960 192h-64v-128h-64v192h-64v-192h-64v128h-64v-128h-64v192h-64v-192h-64v128h-64v-128h-64v192h-64v-192h-64v128h-64v-128h-64v256h896zM971.52 672l-182.4-182.4-45.44 44.8 103.040 105.6h-270.72v64h276.48l-108.8 108.16 45.44 44.8zM171.52 704h276.48v-64h-270.72l103.040-105.6-45.44-44.8-182.4 182.4 182.4 182.4 45.44-44.8z" />
<glyph unicode="&#xe90b;" glyph-name="measure-area" d="M320 448h64v-192h-64zM192 384h64v-128h-64zM576 448h64v-192h-64zM832 448h64v-192h-64zM1024 192v384h-128v64h64v192h-192v-61.12l-448 122.24v66.88h-192v-192h64v-192h-128v-384h128v-64h-64v-192h192v64h448v-64h192v192h-64v64zM832 768h64v-64h-64zM320 826.752l448-122.176v-64.576h64v-64h-576v192h64zM192 896h64v-64h-64zM256 0h-64v64h64zM768 64h-448v64h-64v64h576v-64h-64zM896 0h-64v64h64zM128 255.872v256.128h832.064v-256.128zM448 384h64v-128h-64zM704 384h64v-128h-64z" />
</font>
</defs>
</svg>
